Página 1 de 1

Bal poussière (Henri Duparc, 1989) DVDRip VOSE

Publicado: 19 Sep 2020, 13:23
por boss0506
Imagen

Imagen


Por cortesía de castinheira


Bal poussière
(Bailando en el polvo)

IMDB

Dirección
Henri Duparc

Guión
Henri Duparc

Fotografía
Bernard Déchet

Género
Comedia

País
Costa de Marfil

Año de producción
1989

Reparto:
Bamba Bakari, Tcheley Hanny, Naky Savane,
Thérèse Taba, Jeanne Banc, Victor Cousin,
Bertin Kouakou, Ahmed Nassar, Angèle Niangoran.




SINOPSIS: Demi-Dieu (Semidiós), apodado así porque en el pueblo después de Dios el patrón es él, es un rico campesino que ya tiene 5 mujeres. Con el fin de armonizar la semana decide tomar una sexta esposa: ¡6 días, 6 mujeres y el domingo para descansar! Se fija en una chica de la ciudad, moderna y avispada... (FILMAFFINITY)



CAPTURAS

Imagen
Imagen
Imagen
Imagen
Imagen
Imagen
Imagen


Código: Seleccionar todo

Complete name               : Bal poussière (Henri Duparc, 1989) DVDRip VO.mkv
Format                      : Matroska
Format version              : Version 4
File size                   : 1.00 GiB
Duration                    : 1 h 31 min
Overall bit rate            : 1 568 kb/s
Encoded date                : UTC 2016-04-01 15:11:27
Writing application         : mkvmerge v9.0.1 ('Obstacles') 64bit
Writing library             : libebml v1.3.3 + libmatroska v1.4.4

Video
ID                          : 1
Format                      : AVC
Format/Info                 : Advanced Video Codec
Format profile              : High@L4.1
Format settings             : CABAC / 8 Ref Frames
Format settings, CABAC      : Yes
Format settings, ReFrames   : 8 frames
Codec ID                    : V_MPEG4/ISO/AVC
Duration                    : 1 h 31 min
Bit rate                    : 1 374 kb/s
Width                       : 704 pixels
Height                      : 454 pixels
Display aspect ratio        : 5:3
Frame rate mode             : Constant
Frame rate                  : 24.000 FPS
Color space                 : YUV
Chroma subsampling          : 4:2:0
Bit depth                   : 8 bits
Scan type                   : Progressive
Bits/(Pixel*Frame)          : 0.179
Stream size                 : 899 MiB (88%)
Writing library             : x264 core 148 r2638 7599210
Encoding settings           : cabac=1 / ref=8 / deblock=1:-3:-3 / analyse=0x3:0x133 / me=umh / subme=10 / psy=1 / psy_rd=1.00:0.15 / mixed_ref=1 / me_range=32 / chroma_me=1 / trellis=2 / 8x8dct=1 / cqm=0 / deadzone=21,11 / fast_pskip=0 / chroma_qp_offset=-3 / threads=8 / lookahead_threads=2 / sliced_threads=0 / nr=0 / decimate=0 / interlaced=0 / bluray_compat=0 / constrained_intra=0 / bframes=10 / b_pyramid=2 / b_adapt=2 / b_bias=0 / direct=1 / weightb=1 / open_gop=0 / weightp=2 / keyint=240 / keyint_min=24 / scenecut=40 / intra_refresh=0 / rc_lookahead=60 / rc=crf / mbtree=1 / crf=19.5 / qcomp=0.60 / qpmin=0 / qpmax=69 / qpstep=4 / vbv_maxrate=14000 / vbv_bufsize=14000 / crf_max=0.0 / nal_hrd=none / filler=0 / ip_ratio=1.40 / aq=1:1.00
Default                     : Yes
Forced                      : No

Audio
ID                          : 2
Format                      : AC-3
Format/Info                 : Audio Coding 3
Commercial name             : Dolby Digital
Codec ID                    : A_AC3
Duration                    : 1 h 31 min
Bit rate mode               : Constant
Bit rate                    : 192 kb/s
Channel(s)                  : 2 channels
Channel layout              : L R
Sampling rate               : 48.0 kHz
Frame rate                  : 31.250 FPS (1536 SPF)
Bit depth                   : 16 bits
Compression mode            : Lossy
Stream size                 : 126 MiB (12%)
Language                    : French
Service kind                : Complete Main
Default                     : Yes
Forced                      : No

Text
ID                          : 3
Format                      : UTF-8
Codec ID                    : S_TEXT/UTF8
Codec ID/Info               : UTF-8 Plain Text
Duration                    : 1 h 30 min
Bit rate                    : 40 b/s
Count of elements           : 1003
Stream size                 : 27.3 KiB (0%)
Language                    : English
Default                     : Yes
Forced                      : No



SUBTÍTULOS EN ESPAÑOL:
https://www.subdivx.com/X6XNjA1MTkw


:hi:

Re: Bal poussière (Henri Duparc, 1989) DVDRip VOSE

Publicado: 19 Sep 2020, 17:10
por PREACHER
La sátira como lente para el retrato social.

Buen rollo, boss. :up:

Re: Bal poussière (Henri Duparc, 1989) DVDRip VOSE

Publicado: 19 Sep 2020, 17:46
por Danyyyy
Muchas gracias a castinheira y a boss0506 por aproximarnos a este film. No he llegado a conectar con la película, tiene alguna que otra nota de humor que me agradó, pero el tema de la poligamia que lo envuelve no me dijo mucho (tampoco pese a que quizás se le pudiera asociar de manera pareja una elaborada carga crítica en torno al poder del dinero), las interpretaciones correctas, destacable dirección. Es un verdadero lujo poder acceder a este tipo de material y más con subtítulos en español, caen con cuentagotas y no es cosa de desaprovechar y perder la ocasión de asomarse a estas ventanas.

Re: Bal poussière (Henri Duparc, 1989) DVDRip VOSE

Publicado: 19 Sep 2020, 19:40
por eulsus
Muchas gracias por un nuevo subtítulo, Boss Springsteen. :)

Esta vez las capturas te han quedado niqueladas.

Re: Bal poussière (Henri Duparc, 1989) DVDRip VOSE

Publicado: 19 Sep 2020, 20:07
por sete
Muchas gracias, boss0506.
:hi:

Re: Bal poussière (Henri Duparc, 1989) DVDRip VOSE

Publicado: 20 Sep 2020, 03:12
por gatatitania
¡Gracias, Boss! :amo: :amo: :amo:

Re: Bal poussière (Henri Duparc, 1989) DVDRip VOSE

Publicado: 21 Sep 2020, 03:19
por ciberyago
Muchas gracias!