L'estate di Giacomo (Alessandro Comodin, 2011) DVDRip VOSE

Puntuación
5/10
1 voto

Giacomo's Summer

Moderador: loperena

Reglas del Foro
No se admiten publicaciones de películas cuya fecha de producción sea inferior a tres años completos. Norma de los tres años.
Responder
Avatar de Usuario
Juramentado
 
Mensajes: 1537
Registrado: 16 Oct 2012, 20:58
Agradecido : 265 veces
Agradecimiento recibido: 441 veces

Italia L'estate di Giacomo (Alessandro Comodin, 2011) DVDRip VOSE

Mensaje por Juramentado » 22 Ago 2019, 21:35


L'estate di Giacomo

Imagen

ImagenImagenImagenImagenImagenImagen ImagenImagenImagen

L'estate di Giacomo (2011)
78 min Italia/Francia/Bélgica Comedia, Drama
Director:
Alessandro Comodin
Guión:
Alessandro Comodin
Productor:
Sabrina Baracetti
Música:
Paolo Benzi
Fotografía:
Thomas Bertacche
Reparto: Giacomo Zulian, Stefania Comodin, Barbara Colombo

Sinopsis:

Es verano en la campaña del noreste de Italia. Giacomo es un chico sordo de 19 años. Un día va al río para hacer un picnic con Stefania, su amiga desde la infancia. Los dos chicos se apartan tanto del camino conocido que acaban perdiéndose. Estarán solos y libres durante una tarde que podría durar un verano entero. La sensualidad acompañará sus juegos de niños, hasta que Stefania y Giacomo comprenderán que la aventura que acaban de vivir juntos no es nada más que un recuerdo dulce y amargo de un tiempo ya perdido.


Datos técnicos:


Información adicional:

DVD remux (via Makemkv) del DVD italiano (Tucker Films).
Lleva subs en inglés (srt y vobsub) e italiano / italiano para sordos (vobsub).
Además la segunda pista de audio es un audiocomentario del director.


Capturas:






Datos técnicos
Spoiler:
General
Unique ID :

277178478039461142315090262671861054468

(0xD086A21180FD65A75C631616368D7C04)
Complete name :L'Estate di Giacomo (2011) PAL

TUCKER FILMS DVD9 [Custom Subs] Alessandro Comodin_t00-VOSI.mkv
Format : Matroska
Format version : Version 4 / Version 2
File size : 2.95 GiB
Duration : 1h 15mn
Overall bit rate mode : Variable
Overall bit rate : 5 614 Kbps
Movie name : L'Estate di Giacomo (2011) PAL

TUCKER FILMS DVD9 [Custom Subs] Alessandro Comodin
Encoded date : UTC 2019-08-19 18:04:24
Writing application : mkvmerge v36.0.0 ('Is That

Jazz?') 32-bit
Writing library : libebml v1.3.9 + libmatroska

v1.5.2

Video
ID : 1
Format : MPEG Video
Format version : Version 2
Format profile : Main@Main
Format settings, BVOP : Yes
Format settings, Matrix : Default
Format settings, GOP : M=3, N=12
Format settings, picture structure : Frame
Codec ID : V_MPEG2
Codec ID/Info : MPEG 1 or 2 Video
Duration : 1h 15mn
Bit rate mode : Variable
Bit rate : 4 968 Kbps
Maximum bit rate : 8 500 Kbps
Width : 720 pixels
Height : 576 pixels
Display aspect ratio : 16:9
Frame rate mode : Constant
Frame rate : 25.000 fps
Standard : PAL
Color space : YUV
Chroma subsampling : 4:2:0
Bit depth : 8 bits
Scan type : Interlaced
Scan order : Top Field First
Compression mode : Lossy
Bits/(Pixel*Frame) : 0.479
Time code of first frame : 00:00:00:00
Time code source : Group of pictures header
GOP, Open/Closed : Closed
Stream size : 2.61 GiB (88%)
Language : English
Default : No
Forced : No
Color primaries : BT.601 PAL
Transfer characteristics : BT.470 System B, BT.470 System

G
Matrix coefficients : BT.601

Audio #1
ID : 2
Format : AC-3
Format/Info : Audio Coding 3
Mode extension : CM (complete main)
Format settings, Endianness : Big
Codec ID : A_AC3
Duration : 1h 15mn
Bit rate mode : Constant
Bit rate : 448 Kbps
Channel(s) : 6 channels
Channel positions : Front: L C R, Side: L R, LFE
Sampling rate : 48.0 KHz
Frame rate : 31.250 fps (1536 spf)
Compression mode : Lossy
Stream size : 241 MiB (8%)
Title : Surround 5.1
Language : Italian
Default : Yes
Forced : No

Audio #2
ID : 3
Format : AC-3
Format/Info : Audio Coding 3
Mode extension : CM (complete main)
Format settings, Endianness : Big
Codec ID : A_AC3
Duration : 1h 15mn
Bit rate mode : Constant
Bit rate : 192 Kbps
Channel(s) : 2 channels
Channel positions : Front: L R
Sampling rate : 48.0 KHz
Frame rate : 31.250 fps (1536 spf)
Compression mode : Lossy
Stream size : 103 MiB (3%)
Title : Stereo
Language : Italian
Default : No
Forced : No

Text #1
ID : 4
Format : UTF-8
Codec ID : S_TEXT/UTF8
Codec ID/Info : UTF-8 Plain Text
Duration : 1h 9mn
Bit rate : 19 bps
Count of elements : 338
Stream size : 9.70 KiB (0%)
Language : English
Default : No
Forced : No

Text #2
ID : 5
Format : VobSub
Muxing mode : zlib
Codec ID : S_VOBSUB
Codec ID/Info : Picture based subtitle format

used on DVDs
Duration : 1h 13mn
Bit rate : 2 452 bps
Count of elements : 484
Stream size : 1.29 MiB (0%)
Language : Italian
Default : Yes
Forced : No

Text #3
ID : 6
Format : VobSub
Muxing mode : zlib
Codec ID : S_VOBSUB
Codec ID/Info : Picture based subtitle format

used on DVDs
Duration : 1h 13mn
Bit rate : 2 917 bps
Count of elements : 484
Stream size : 1.54 MiB (0%)
Language : Italian
Default : No
Forced : No

Text #4
ID : 7
Format : VobSub
Muxing mode : zlib
Codec ID : S_VOBSUB
Codec ID/Info : Picture based subtitle format

used on DVDs
Duration : 1h 9mn
Bit rate : 2 164 bps
Count of elements : 329
Stream size : 1.07 MiB (0%)
Language : English
Default : No
Forced : No

Text #5
ID : 8
Format : VobSub
Muxing mode : zlib
Codec ID : S_VOBSUB
Codec ID/Info : Picture based subtitle format

used on DVDs
Duration : 1h 9mn
Bit rate : 2 078 bps
Count of elements : 329
Stream size : 1.03 MiB (0%)
Language : English
Default : No
Forced : No

Menu
00:00:00.000 : en:Chapter 01
00:04:36.920 : en:Chapter 02
00:09:58.400 : en:Chapter 03
00:13:45.560 : en:Chapter 04
00:17:04.440 : en:Chapter 05
00:22:06.760 : en:Chapter 06
00:27:48.520 : en:Chapter 07
00:32:58.960 : en:Chapter 08
00:38:33.880 : en:Chapter 09
00:41:54.520 : en:Chapter 10
00:44:12.560 : en:Chapter 11
00:49:01.960 : en:Chapter 12
00:51:52.520 : en:Chapter 13
00:55:32.240 : en:Chapter 14
00:59:09.160 : en:Chapter 15
01:03:11.760 : en:Chapter 16
01:06:16.040 : en:Chapter 17
01:10:14.120 : en:Chapter 18[/tag]
eD2K link L'Estate di Giacomo (2011) PAL TUCKER FILMS DVD9 [Custom Subs] Alessandro Comodin_t00-VOSI.mkv [2.95 Gb] 


wetransfer parte 1 (caduca en 1 semana)
wetransfer parte 2(caduca en 1 semana)
Última edición por Juramentado el 23 Ago 2019, 09:15, editado 1 vez en total.

Avatar de Usuario
Juramentado
 
Mensajes: 1537
Registrado: 16 Oct 2012, 20:58
Agradecido : 265 veces
Agradecimiento recibido: 441 veces

Re: L'estate di Giacomo (Alessandro Comodin, 2011) DVDRip VOSI-SIt

Mensaje por Juramentado » 23 Ago 2019, 09:14

He encontrado unos subs españoles, traducción de Chadites desde los subs ingleses.

https://subscene.com/subtitles/summer-o ... sh/2039133

Responder

Volver a “Largos Contemporáneos”