Un jeu brutal (Jean-Claude Brisseau, 1983) DVDRip VOSE

Puntuación
5,5/10
2 votos

Un juego brutal

Moderador: loperena

Reglas del Foro
No se admiten publicaciones de películas cuya fecha de producción sea inferior a tres años completos. Norma de los tres años.
Responder
Avatar de Usuario
boss0506
 
Mensajes: 723
Registrado: 16 Oct 2012, 17:32
Agradecido : 622 veces
Agradecimiento recibido: 591 veces

Francia Un jeu brutal (Jean-Claude Brisseau, 1983) DVDRip VOSE

Mensaje por boss0506 » 01 Ago 2019, 11:37

Imagen


Publicada por endrju en KG



Un jeu brutal
(Un juego brutal)

IMDB

Dirección
Jean-Claude Brisseau

Guión
Jean-Claude Brisseau

Fotografía
Bernard Lutic

Género
Crimen / Drama

País
Francia

Año de producción
1983

Reparto:
Bruno Cremer, Emmanuelle Debever, María Luisa García,
Albert Pigot, Humbert Balsan, Jean Douchet,
Liliane Gaudet, Catherine Griffoni, Lucienne Le Marchand



SINOPSIS: Christian Tessier es un célebre biólogo del instituto Pasteur que, al abandonar su puesto como investigador, a instancias de su madre moribunda, debe encargarse de Isabelle, su hija, la cual hace años que está internada en una institución para discapacitados. La muchacha tiene un carácter rebelde y agresivo que su padre corregirá con unos severos métodos que pretenden rectificar su actitud. Mientras tanto, las noticias hablan de un asesino en serie que mata a niños de la región. (CINEol)



CAPTURAS

Imagen

Imagen

Imagen

Imagen

Imagen

Imagen



Spoiler:
Unique ID : 111755426465116728003120929724090510859 (0x54134FEE2774186A62E11848685F6E0B)
Complete name : Jean-Claude Brisseau - (1983) A Brutal Game.mkv
Format : Matroska
Format version : Version 2
File size : 1.74 GiB
Duration : 1 h 26 min
Overall bit rate : 2 874 kb/s
Encoded date : UTC 2019-05-12 12:53:41
Writing application : mkvmerge v32.0.0 ('Astral Progressions') 64-bit
Writing library : libebml v1.3.7 + libmatroska v1.5.0

Video
ID : 1
Format : AVC
Format/Info : Advanced Video Codec
Format profile : High@L3.1
Format settings : CABAC / 10 Ref Frames
Format settings, CABAC : Yes
Format settings, ReFrames : 10 frames
Codec ID : V_MPEG4/ISO/AVC
Duration : 1 h 26 min
Bit rate : 2 678 kb/s
Width : 700 pixels
Height : 572 pixels
Display aspect ratio : 4:3
Original display aspect rat : 4:3
Frame rate mode : Constant
Frame rate : 25.000 FPS
Color space : YUV
Chroma subsampling : 4:2:0
Bit depth : 8 bits
Scan type : Progressive
Bits/(Pixel*Frame) : 0.268
Stream size : 1.62 GiB (93%)
Writing library : x264 core 157 r2969 d4099dd
Encoding settings : cabac=1 / ref=10 / deblock=1:-3:-3 / analyse=0x3:0x133 / me=umh / subme=9 / psy=1 / psy_rd=1.00:0.15 / mixed_ref=1 / me_range=28 / chroma_me=1 / trellis=2 / 8x8dct=1 / cqm=0 / deadzone=21,11 / fast_pskip=0 / chroma_qp_offset=-3 / threads=12 / lookahead_threads=3 / sliced_threads=0 / nr=0 / decimate=0 / interlaced=0 / bluray_compat=0 / constrained_intra=0 / bframes=11 / b_pyramid=2 / b_adapt=2 / b_bias=0 / direct=3 / weightb=1 / open_gop=0 / weightp=2 / keyint=250 / keyint_min=25 / scenecut=40 / intra_refresh=0 / rc_lookahead=60 / rc=crf / mbtree=1 / crf=21.6 / qcomp=0.60 / qpmin=0 / qpmax=69 / qpstep=4 / vbv_maxrate=14000 / vbv_bufsize=14000 / crf_max=0.0 / nal_hrd=none / filler=0 / ip_ratio=1.40 / aq=1:1.00
Default : Yes
Forced : No

Audio
ID : 2
Format : AC-3
Format/Info : Audio Coding 3
Commercial name : Dolby Digital
Codec ID : A_AC3
Duration : 1 h 26 min
Bit rate mode : Constant
Bit rate : 192 kb/s
Channel(s) : 2 channels
Channel layout : L R
Sampling rate : 48.0 kHz
Frame rate : 31.250 FPS (1536 SPF)
Bit depth : 16 bits
Compression mode : Lossy
Delay relative to video : 1 s 0 ms
Stream size : 119 MiB (7%)
Service kind : Complete Main
Default : Yes
Forced : No

Text
ID : 3
Format : VobSub
Muxing mode : zlib
Codec ID : S_VOBSUB
Codec ID/Info : Picture based subtitle format used on DVDs
Duration : 1 h 22 min
Bit rate : 4 056 b/s
Count of elements : 641
Stream size : 2.41 MiB (0%)
Language : English
Default : Yes
Forced : No

eD2K link Jean-Claude Brisseau - (1983) A Brutal Game.mkv [1.74 Gb] 


SUBTÍTULOS EN ESPAÑOL TRADUCIDOS POR DONMEDINA
Los he sincronizado para este archivo:
https://www.subdivx.com/X6XNTcxNTk2


:hi:

Avatar de Usuario
sete
 
Mensajes: 4435
Registrado: 22 Dic 2012, 16:10
Agradecido : 213 veces
Agradecimiento recibido: 1337 veces

Re: Un jeu brutal (Jean-Claude Brisseau, 1983) DVDRip VOSE

Mensaje por sete » 01 Ago 2019, 17:46

Muchas gracias, DONMEDINA y boss0506.
:hi:
Este mundo está traicionando a la vida.
José Luis Sampedro

Avatar de Usuario
yojimbo
 
Mensajes: 9295
Registrado: 18 Oct 2012, 14:25
Agradecido : 9313 veces
Agradecimiento recibido: 2358 veces

Re: Un jeu brutal (Jean-Claude Brisseau, 1983) DVDRip VOSE

Mensaje por yojimbo » 07 Ene 2020, 18:34

Muchas gracias, boss0506 y donmedina.

Responder

Volver a “Largos Contemporáneos”