The Whales Of August (Lindsay Anderson, 1987) DVDRip Dual SE

Puntuación
5,3/10
3 votos

Moderador: loperena

Reglas del Foro
No se admiten publicaciones de películas cuya fecha de producción sea inferior a tres años completos. Norma de los tres años.
Responder
Avatar de Usuario
locotus
 
Mensajes: 917
Registrado: 16 Oct 2012, 18:18
Agradecido : 45 veces
Agradecimiento recibido: 5661 veces

Estados Unidos The Whales Of August (Lindsay Anderson, 1987) DVDRip Dual SE

Mensaje por locotus » 05 Ago 2015, 05:37

The Whales of August (1987)
Imagen
The Whales of August es una película de 1987 basada en una obra de David Berry y protagonizada
por Bette Davis y Lillian Gish como ancianas hermanas. También figuran en reparto Ann Sothern
como una de sus amigas y Vincent Price como un miembro periférico de la antigua aristocracia rusa.
La película fue filmada en la isla Cliff en Maine. La casa todavía existe y es un sujeto popular
para los artistas locales. La película fue dirigida por Lindsay Anderson, su última película y el
guión fue adaptado por David Berry basado en su propia obra.

The Whales of August narra la historia de dos ancianas hermanas viudas, cerca del final de sus vidas,
pasando un verano en una casa a la orilla de mar en Maine. Los alrededores las hacen rememorar sus
relaciones como jóvenes mujeres y los veranos que habían disfrutado ahí en el pasado. Reflexionan
sobre el pasar del tiempo y las amarguras, celos y malos entendidos que lentamente y por años
mantuvieron y que les impidieron una verdadera cercanía en su relación.
Tomado de: https://en.wikipedia.org/wiki/The_Whales_of_August

http://www.imdb.com/title/tt0094315/
Directed by Lindsay Anderson
Writing Credits: David Berry ...(play & screenplay)

Reparto:
Bette Davis ... Libby Strong
Lillian Gish ... Sarah Webber
Vincent Price ... Mr. Maranov
Ann Sothern ... Tisha Doughty
Harry Carey Jr. ... Joshua Brackett
Frank Grimes ... Mr. Beckwith
Margaret Ladd ... Young Libby
Tisha Sterling ... Young Tisha
Mary Steenburgen ... Young Sarah
Frank Pitkin ... Old Randall
Mike Bush ... Young Randall

Runtime: 90 min
Sound Mix: Stereo
Color: Color (TVC)
Aspect Ratio: 1.85 : 1

Capturas:

ImagenImagenImagenImagen

ImagenImagenImagenImagen

Datos:

Código: Seleccionar todo

General
Unique ID                   : 255164124179426121794140867219553281564 (0xBFF6D29FAE86850092FDF08BEDC0661C)
Complete name               : The Whales Of August (1987) DVDRip.Dual.mkv
Format                      : Matroska
Format version              : Version 4 / Version 2
File size                   : 1.62 GiB
Duration                    : 1h 30mn
Overall bit rate            : 2 553 Kbps
Encoded date                : UTC 2015-08-04 14:36:16
Writing application         : mkvmerge v7.9.0 ('Birds') 64bit
Writing library             : libebml v1.3.1 + libmatroska v1.4.2
_STATISTICS_WRITING_APP     : mkvmerge v7.9.0 ('Birds') 64bit
_STATISTICS_WRITING_DATE_UT : 2015-08-04 14:36:16
_STATISTICS_TAGS            : BPS DURATION NUMBER_OF_FRAMES NUMBER_OF_BYTES
DURATION                    : 01:30:58.208000000
NUMBER_OF_FRAMES            : 170569
NUMBER_OF_BYTES             : 130996992

Video
ID                          : 1
Format                      : AVC
Format/Info                 : Advanced Video Codec
Format profile              : High@L4.1
Format settings, CABAC      : Yes
Format settings, ReFrames   : 5 frames
Codec ID                    : V_MPEG4/ISO/AVC
Duration                    : 1h 30mn
Bit rate                    : 2 164 Kbps
Width                       : 704 pixels
Height                      : 384 pixels
Display aspect ratio        : 1.85:1
Frame rate mode             : Constant
Frame rate                  : 23.976 fps
Color space                 : YUV
Chroma subsampling          : 4:2:0
Bit depth                   : 8 bits
Scan type                   : Progressive
Bits/(Pixel*Frame)          : 0.334
Stream size                 : 1.35 GiB (83%)
Writing library             : x264 core 148 r2579 73ae2d1
Encoding settings           : cabac=1 / ref=5 / deblock=1:-1:-1 / analyse=0x3:0x113 / me=umh / subme=8 / psy=1 / psy_rd=1.00:0.15 / mixed_ref=1 / me_range=16 / chroma_me=1 / trellis=1 / 8x8dct=1 / cqm=0 / deadzone=21,11 / fast_pskip=1 / chroma_qp_offset=-3 / threads=6 / lookahead_threads=1 / sliced_threads=0 / nr=0 / decimate=1 / interlaced=0 / bluray_compat=0 / constrained_intra=0 / bframes=3 / b_pyramid=2 / b_adapt=2 / b_bias=0 / direct=3 / weightb=1 / open_gop=0 / weightp=2 / keyint=240 / keyint_min=23 / scenecut=40 / intra_refresh=0 / rc_lookahead=50 / rc=2pass / mbtree=1 / bitrate=2164 / ratetol=1.0 / qcomp=0.60 / qpmin=0 / qpmax=69 / qpstep=4 / cplxblur=20.0 / qblur=0.5 / vbv_maxrate=50000 / vbv_bufsize=62500 / nal_hrd=none / filler=0 / ip_ratio=1.40 / aq=1:1.00
Default                     : Yes
Forced                      : No

Audio #1
ID                          : 2
Format                      : AC-3
Format/Info                 : Audio Coding 3
Mode extension              : CM (complete main)
Format settings, Endianness : Big
Codec ID                    : A_AC3
Duration                    : 1h 30mn
Bit rate mode               : Constant
Bit rate                    : 192 Kbps
Channel(s)                  : 2 channels
Channel positions           : Front: L R
Sampling rate               : 48.0 KHz
Compression mode            : Lossy
Stream size                 : 125 MiB (8%)
Language                    : English
Default                     : Yes
Forced                      : No

Audio #2
ID                          : 3
Format                      : AC-3
Format/Info                 : Audio Coding 3
Mode extension              : CM (complete main)
Format settings, Endianness : Big
Codec ID                    : A_AC3
Duration                    : 1h 30mn
Bit rate mode               : Constant
Bit rate                    : 192 Kbps
Channel(s)                  : 2 channels
Channel positions           : Front: L R
Sampling rate               : 48.0 KHz
Compression mode            : Lossy
Stream size                 : 125 MiB (8%)
Language                    : Spanish
Default                     : No
Forced                      : No

Text #1
ID                          : 4
Format                      : VobSub
Muxing mode                 : zlib
Codec ID                    : S_VOBSUB
Codec ID/Info               : Picture based subtitle format used on DVDs
Language                    : English
Default                     : No
Forced                      : No

Text #2
ID                          : 5
Format                      : VobSub
Muxing mode                 : zlib
Codec ID                    : S_VOBSUB
Codec ID/Info               : Picture based subtitle format used on DVDs
Language                    : Spanish
Default                     : No
Forced                      : No
Subtítulos en ingles y español dentro del contenedor MKV.

Elink:
eD2K link The Whales Of August (1987) DVDRip.Dual.mkv [1.62 Gb] 
“Si no lees los periódicos estás desinformado”.
Y si los lees estás mal informado”.
Denzel Washington.

Avatar de Usuario
victor1949
 
Mensajes: 1157
Registrado: 17 Oct 2012, 08:13
Ubicación: Palamós / Baix Empodá
Agradecido : 112 veces
Agradecimiento recibido: 179 veces

Re: The Whales Of August (Lindsay Anderson, 1987) DVDRip Dual SE

Mensaje por victor1949 » 05 Ago 2015, 09:02

Muchísimas grácias, locotus. ...(¡¡estás que te sales, ¿eh?!!)

Avatar de Usuario
tonapar1
 
Mensajes: 4262
Registrado: 16 Oct 2012, 20:19
Agradecido : 1081 veces
Agradecimiento recibido: 1207 veces

Re: The Whales Of August (Lindsay Anderson, 1987) DVDRip Dual SE

Mensaje por tonapar1 » 05 Ago 2015, 20:06

Muchas gracias por el ripeo, Locotus, toca renovar copia. Un saludo

Avatar de Usuario
yojimbo
 
Mensajes: 9168
Registrado: 18 Oct 2012, 14:25
Agradecido : 9157 veces
Agradecimiento recibido: 2284 veces

Re: The Whales Of August (Lindsay Anderson, 1987) DVDRip Dual SE

Mensaje por yojimbo » 09 Ago 2015, 12:08

Muchas gracias, locotus.

Avatar de Usuario
Mercedes
 
Mensajes: 2556
Registrado: 16 Oct 2012, 15:03
Ubicación: Un lugar en el Sur
Agradecido : 4934 veces
Agradecimiento recibido: 6988 veces

Re: The Whales Of August (Lindsay Anderson, 1987) DVDRip Dual SE

Mensaje por Mercedes » 01 Ene 2020, 11:20

¡¡Feliz Año 2020, compañeros!!

¿Alguien me puede facilitar este ripeo? Carece de fuentes.

Abrazos.
Imagen

"Quédate" es una hermosa palabra.

Avatar de Usuario
yojimbo
 
Mensajes: 9168
Registrado: 18 Oct 2012, 14:25
Agradecido : 9157 veces
Agradecimiento recibido: 2284 veces

Re: The Whales Of August (Lindsay Anderson, 1987) DVDRip Dual SE

Mensaje por yojimbo » 01 Ene 2020, 13:21

Mercedes escribió:
01 Ene 2020, 11:20
¡¡Feliz Año 2020, compañeros!!

¿Alguien me puede facilitar este ripeo? Carece de fuentes.

Abrazos.

https://we.tl/t-yB2EQoleky

Avatar de Usuario
Mercedes
 
Mensajes: 2556
Registrado: 16 Oct 2012, 15:03
Ubicación: Un lugar en el Sur
Agradecido : 4934 veces
Agradecimiento recibido: 6988 veces

Re: The Whales Of August (Lindsay Anderson, 1987) DVDRip Dual SE

Mensaje por Mercedes » 01 Ene 2020, 19:21

Muchísimas gracias, yojimbo. Un abrazo enorme. Imagen
Imagen

"Quédate" es una hermosa palabra.

Responder

Volver a “Largos Contemporáneos”