The Dead (John Huston, 1987) Ver índice

Puntuación
8,5/10
4 votos

Los dublineses

Moderador: loperena

Reglas del Foro
No se admiten publicaciones de películas cuya fecha de producción sea inferior a cinco años completos. Norma de los cinco años.
Responder
Avatar de Usuario
yojimbo
 
Mensajes: 12265
Registrado: 18 Oct 2012 14:25
Agradecido : 11896 veces
Agradecimiento recibido: 3453 veces

Re: The Dead (John Huston, 1987) DVDRip Dual SE

Mensaje por yojimbo » 26 Mar 2013 14:52

Gracias por recuperarla, professor keller. Gracias por ripearla, locotus.

Avatar de Usuario
DMMD
 
Mensajes: 663
Registrado: 16 Oct 2012 15:35
Agradecido : 704 veces
Agradecimiento recibido: 3494 veces

Reino Unido The Dead (John Huston, 1987) WEB-DL 720p Dual SE

Mensaje por DMMD » 22 Oct 2016 12:21

The Dead

John Huston, 1987





Imagen

Imagen


Dublineses (Los muertos)

Título original
The Dead
Año
1987
Duración
81 min.
País Imagen
Director
John Huston
Guión
Tony Huston (Relato: James Joyce)
Música
Alex North
Fotografía
Fred Murphy
Reparto
Anjelica Huston, Donald McCann, Helena Carroll, Cathleen Delany, Ingrid Craigie, Rachel Dowling, Dan O'Herlihy, Marie Kean, Donald Donnelly, Colm Meaney

Productora
Coproducción Reino Unido-Irlanda-Estados Unidos; Channel 4 / Delta Film / Liffey Films / Vestron Pictures / Zenith Entertainment

Género
Drama | Años 1900 (circa)

Sinopsis
El día de la Epifanía de 1904 está a punto de empezar una de las fiestas más concurridas de Dublín, la de las señoritas Morkan. Entre los invitados se encuentra Gabriel Conroy, sobrino de las anfitrionas y marido de la hermosa Gretta. Esa noche, los invitados disfrutan de una magnífica velada. Gabriel, muy enamorado de su esposa, observa su emoción cuando suena una antigua canción de amor. De vuelta a casa, Gretta le confiesa un secreto: aquella canción le ha traído a la memoria el recuerdo de un amor de juventud, que se vio truncado por la muerte del amado. (FILMAFFINITY)

Premios
1987: 2 nominaciones al Oscar: Mejor vestuario, guión adaptado
1987: Premios David di Donatello: Nominada Mejor film extranjero
1987: Círculo de Críticos de Nueva York: 4 Nominaciones

Críticas
Elegida por los críticos españoles como la mejor película de los ochenta, "Dublineses" es una de esas joyas que hace de la simplicidad y la transparencia su mejor virtud. Huston eligió el soberbio relato de Joyce para realizar su testamento cinematográfico, un film lleno de sinceridad y nostalgia con un final tan inesperado como conmovedor. Talento, humildad y emoción para una obra maestra absoluta, un oasis de clasicismo hollywoodiense a finales de la peor década de la historia del cine americano.



Código: Seleccionar todo

General
Unique ID                                : 234752690871917881585650046215197201471 (0xB09BB94396B094EAB70265DEE58E943F)
Complete name                            : C:\Program Files (x86)\eMule\Incoming\1987-The.Dead.WEB-DL.720p.AC3[DMMD].mkv
Format                                   : Matroska
Format version                           : Version 4 / Version 2
File size                                : 2.95 GiB
Duration                                 : 1h 23mn
Overall bit rate                         : 5 085 Kbps
Movie name                               : 1987-The.Dead.WEB-DL.720p.AC3[DMMD]
Encoded date                             : UTC 2016-10-22 09:47:32
Writing application                      : mkvmerge v9.0.1 ('Obstacles') 64bit
Writing library                          : libebml v1.3.3 + libmatroska v1.4.4
Attachements                             : 1 / 2 / 3 / 4
DURATION                                 : 01:15:50.717000000
NUMBER_OF_FRAMES                         : 959
NUMBER_OF_BYTES                          : 35733
_STATISTICS_WRITING_APP                  : mkvmerge v9.0.1 ('Obstacles') 64bit
_STATISTICS_WRITING_DATE_UTC             : 2016-10-22 09:47:32
_STATISTICS_TAGS                         : BPS DURATION NUMBER_OF_FRAMES NUMBER_OF_BYTES

Video
ID                                       : 1
Format                                   : AVC
Format/Info                              : Advanced Video Codec
Format profile                           : High@L4.1
Format settings, CABAC                   : Yes
Format settings, ReFrames                : 9 frames
Codec ID                                 : V_MPEG4/ISO/AVC
Duration                                 : 1h 23mn
Bit rate                                 : 4 568 Kbps
Width                                    : 1 280 pixels
Height                                   : 720 pixels
Display aspect ratio                     : 16:9
Frame rate mode                          : Constant
Frame rate                               : 23.976 fps
Color space                              : YUV
Chroma subsampling                       : 4:2:0
Bit depth                                : 8 bits
Scan type                                : Progressive
Bits/(Pixel*Frame)                       : 0.207
Stream size                              : 2.65 GiB (90%)
Writing library                          : x264 core 148 r2638kMod 7599210
Encoding settings                        : cabac=1 / ref=9 / deblock=1:-3:-3 / analyse=0x3:0x133 / me=umh / subme=11 / psy=1 / fade_compensate=0.00 / psy_rd=1.00:0.00 / mixed_ref=1 / me_range=32 / chroma_me=1 / trellis=2 / 8x8dct=1 / cqm=0 / deadzone=21,11 / fast_pskip=0 / chroma_qp_offset=-2 / threads=6 / lookahead_threads=1 / sliced_threads=0 / nr=0 / decimate=0 / interlaced=0 / bluray_compat=0 / constrained_intra=0 / fgo=0 / bframes=8 / b_pyramid=2 / b_adapt=2 / b_bias=0 / direct=3 / weightb=1 / open_gop=0 / weightp=2 / keyint=250 / keyint_min=23 / scenecut=40 / intra_refresh=0 / rc=crf / mbtree=0 / crf=17.5000 / qcomp=0.60 / qpmin=0 / qpmax=69 / qpstep=4 / ip_ratio=1.40 / pb_ratio=1.30 / aq=1:1.00
Language                                 : English
Default                                  : Yes
Forced                                   : No
DURATION                                 : 01:23:10.476000000
NUMBER_OF_FRAMES                         : 119652
NUMBER_OF_BYTES                          : 2911187886
_STATISTICS_WRITING_APP                  : mkvmerge v9.0.1 ('Obstacles') 64bit
_STATISTICS_WRITING_DATE_UTC             : 2016-10-22 09:47:32
_STATISTICS_TAGS                         : BPS DURATION NUMBER_OF_FRAMES NUMBER_OF_BYTES

Audio #1
ID                                       : 2
Format                                   : E-AC-3
Format/Info                              : Audio Coding 3
Format settings, Endianness              : Big
Codec ID                                 : A_EAC3
Duration                                 : 1h 23mn
Bit rate mode                            : Constant
Bit rate                                 : 224 Kbps
Channel(s)                               : 2 channels
Channel positions                        : Front: L R
Sampling rate                            : 48.0 KHz
Compression mode                         : Lossy
Stream size                              : 133 MiB (4%)
Language                                 : English
Default                                  : Yes
Forced                                   : No

Audio #2
ID                                       : 3
Format                                   : AC-3
Format/Info                              : Audio Coding 3
Mode extension                           : CM (complete main)
Format settings, Endianness              : Big
Codec ID                                 : A_AC3
Duration                                 : 1h 23mn
Bit rate mode                            : Constant
Bit rate                                 : 192 Kbps
Channel(s)                               : 2 channels
Channel positions                        : Front: L R
Sampling rate                            : 48.0 KHz
Compression mode                         : Lossy
Stream size                              : 114 MiB (4%)
Language                                 : Spanish
Default                                  : No
Forced                                   : No

Text #1
ID                                       : 4
Format                                   : UTF-8
Codec ID                                 : S_TEXT/UTF8
Codec ID/Info                            : UTF-8 Plain Text
Language                                 : Spanish
Default                                  : No
Forced                                   : No

Text #2
ID                                       : 5
Format                                   : UTF-8
Codec ID                                 : S_TEXT/UTF8
Codec ID/Info                            : UTF-8 Plain Text
Language                                 : English
Default                                  : No
Forced                                   : No

Menu
00:00:00.000                             : en:Chapter 1
00:06:30.734                             : en:Chapter 2
00:21:22.701                             : en:Chapter 3
00:25:27.867                             : en:Chapter 4
00:28:23.667                             : en:Chapter 5
00:35:13.234                             : en:Chapter 6
00:38:40.201                             : en:Chapter 7
00:46:14.868                             : en:Chapter 8
00:49:43.968                             : en:Chapter 9
00:55:04.034                             : en:Chapter 10
01:01:17.701                             : en:Chapter 11
01:04:17.967                             : en:Chapter 12
01:07:46.233                             : en:Chapter 13
01:11:47.133                             : en:Chapter 14
01:15:10.033                             : en:Chapter 15
01:19:24.333                             : en:Chapter 16





Imagen
Imagen



CAPTURAS


Imagen
Imagen
Imagen
Imagen
Imagen
Imagen
Imagen
Imagen



Enlaces de descarga

Imagen


eD2K link 1987-The.Dead.WEB-DL.720p.AC3[DMMD].mkv [2.95 Gb] 

Avatar de Usuario
mifune
 
Mensajes: 7338
Registrado: 02 Oct 2012 20:48
Ubicación: Welcome to the Jungle
Agradecido : 10017 veces
Agradecimiento recibido: 10882 veces

Re: The Dead (John Huston, 1987) WEB-DL 720p Dual SE

Mensaje por mifune » 22 Oct 2016 12:28

Gracias DMMD, se viene para casa, que la jefa es fan de Joyce.
Estimados compañeros: recordad enlazar al ripeo previo en vuestros nuevos aportes, para facilitar su localización y unión posterior, gracias.

Avatar de Usuario
janca
 
Mensajes: 2606
Registrado: 16 Oct 2012 16:39
Agradecido : 10135 veces
Agradecimiento recibido: 153 veces

Re: The Dead (John Huston, 1987) WEB-DL 720p Dual SE

Mensaje por janca » 22 Oct 2016 19:16

Muchas gracias DMMD. Imprescindible

vilisanta
 
Mensajes: 96
Registrado: 17 Oct 2012 08:14
Agradecido : 159 veces
Agradecimiento recibido: 163 veces

Re: The Dead (John Huston, 1987) WEB-DL 720p Dual SE

Mensaje por vilisanta » 22 Oct 2016 20:51

Gracias DMMD, mejora de copia. Saludos

ciberyago
 
Mensajes: 2770
Registrado: 20 Oct 2012 07:26
Agradecido : 1 vez
Agradecimiento recibido: 541 veces

Re: The Dead (John Huston, 1987) WEB-DL 720p Dual SE

Mensaje por ciberyago » 26 Oct 2016 05:12

Muhas gracias

Avatar de Usuario
sete
 
Mensajes: 4716
Registrado: 22 Dic 2012 16:10
Agradecido : 239 veces
Agradecimiento recibido: 1479 veces

Re: The Dead (John Huston, 1987) WEB-DL 720p Dual SE

Mensaje por sete » 26 Oct 2016 23:23

Muchas gracias, DMMD.
:hi:
Este mundo está traicionando a la vida.
José Luis Sampedro

rocamadur
 
Mensajes: 79
Registrado: 20 Nov 2012 11:53
Agradecimiento recibido: 16 veces

Re: The Dead (John Huston, 1987) Ver índice

Mensaje por rocamadur » 17 May 2022 20:33

Han pasado los años ; busco desesperadamente el doblaje de Arsenio Corsellas para el protagonista, dado que el que hicieron luego para video es infumable. Normalmente veo las V.O. pero en esta ocasión, el doblaje de Corsellas era de tal calidad que superaba la V.O. La vi en los cines y me ha sido imposible encontrarlo. Este es un mensaje en una botella por si alguien tiene alguna idea de cómo acceder a la primitiva versión de doblaje.

Avatar de Usuario
adelon
 
Mensajes: 638
Registrado: 16 Oct 2012 17:17
Ubicación: Zaragoza
Agradecido : 1 vez
Agradecimiento recibido: 246 veces

Re: The Dead (John Huston, 1987) Ver índice

Mensaje por adelon » 08 Jun 2022 17:10

El redoblaje se hizo para DVD, no para vídeo, por lo que cualquier VHS (Betamax y 2000 no sé si aún se vendían en 1987) lo debería de traer. Saludos.

Responder

Volver a “Largos Contemporáneos”