Light Sleeper (Paul Schrader, 1992) WEBRip 720p Dual SE

Puntuación
6,8/10
4 votos

Posibilidad de escape

Moderador: loperena

Reglas del Foro
No se admiten publicaciones de películas cuya fecha de producción sea inferior a tres años completos. Norma de los tres años.
Responder
Avatar de Usuario
DMMD
 
Mensajes: 554
Registrado: 16 Oct 2012, 15:35
Agradecido : 287 veces
Agradecimiento recibido: 2125 veces

Estados Unidos Light Sleeper (Paul Schrader, 1992) WEBRip 720p Dual SE

Mensaje por DMMD » 13 Ene 2018, 21:02

Light Sleeper

Paul Schrader, 1992




Imagen


Imagen





Posibilidad de escape


Título original Light Sleeper
Año 1992
Duración 103 min.
País Imagen
Dirección Paul Schrader
Guion Paul Schrader
Música Michael Been
Fotografía Edward Lachman
Reparto
Willem Dafoe, Susan Sarandon, Dana Delany, David Clennon, Mary Beth Hurt, Victor Garber, Jane Adams, Paul Jabara, Robert Cicchini, Sam Rockwell, Rene Rivera

Productora Seven Arts
Género Drama | Drogas
Sinopsis
Tiempos de cambio se avecinan para John Le Tour, camello de lujo. Lleva muchos años trabajando para Ann, su jefa. Ya no es joven y debe pensar en el futuro, pues la empresa va a cerrar. Un día de lluvia encuentra a Marianne, la ex esposa junto a la que vivió diez tumultuosos años de drogadicción. Él se desenganchó tiempo atrás. Ella asegura que también. (FILMAFFINITY)

Premios
1992: Festival de Berlín: Sección oficial de largometrajes
1992: Premios Independent Spirit: Nominada a Mejor guión y fotografía

Críticas
"Extraordinaria"
Carlos Boyero: Diario El Mundo
"Excepcional película sobre un camello con dudas morales, del gran guionista Schrader. Imprescindible"
Gregorio Belinchón: Diario El País




Vídeo:

Encode a partir de una captura HD de amazon 1080p.


WEBRip 720p Vs Dvd Momentum Pictures Uk (Pal)

Imagen
Imagen

[code]General
Unique ID : 276248295077066145644595783824639243745 (0xCFD37C81EC911D241F68EEB498BBB5E1)
Complete name : D:\Incoming\1992-Light.Sleeper.WEBRip.720p.AC3.AAC[DMMD].mkv
Format : Matroska
Format version : Version 4 / Version 2
File size : 4.71 GiB
Duration : 1 h 43 min
Overall bit rate : 6 527 kb/s
Movie name : 1992-Light.Sleeper.WEBRip.720p.AAC.AC3[DMMD]
Encoded date : UTC 2018-01-13 19:57:07
Writing application : mkvmerge v19.0.0 ('Brave Captain') 64-bit
Writing library : libebml v1.3.5 + libmatroska v1.4.8
Attachments : 1 / 2

Video
ID : 1
Format : AVC
Format/Info : Advanced Video Codec
Format profile : High@L4.1
Format settings : CABAC / 9 Ref Frames
Format settings, CABAC : Yes
Format settings, RefFrames : 9 frames
Codec ID : V_MPEG4/ISO/AVC
Duration : 1 h 43 min
Bit rate : 5 879 kb/s
Width : 1 280 pixels
Height : 720 pixels
Display aspect ratio : 16:9
Frame rate mode : Constant
Frame rate : 23.976 (24000/1001) FPS
Color space : YUV
Chroma subsampling : 4:2:0
Bit depth : 8 bits
Scan type : Progressive
Bits/(Pixel*Frame) : 0.266
Stream size : 4.24 GiB (90%)
Writing library : x264 core 152 r2851kMod ba24899
Encoding settings : cabac=1 / ref=9 / deblock=1:-3:-3 / analyse=0x3:0x133 / me=umh / subme=11 / psy=1 / fade_compensate=0.00 / psy_rd=1.00:0.00 / mixed_ref=1 / me_range=24 / chroma_me=1 / trellis=2 / 8x8dct=1 / cqm=0 / deadzone=21,11 / fast_pskip=0 / chroma_qp_offset=-2 / threads=6 / lookahead_threads=1 / sliced_threads=0 / nr=0 / decimate=0 / interlaced=0 / bluray_compat=0 / constrained_intra=0 / bframes=8 / b_pyramid=2 / b_adapt=2 / b_bias=0 / direct=3 / weightb=1 / open_gop=0 / weightp=2 / keyint=250 / keyint_min=23 / scenecut=40 / intra_refresh=0 / rc=crf / mbtree=0 / crf=19.4000 / qcomp=0.60 / qpmin=0 / qpmax=69 / qpstep=4 / ip_ratio=1.40 / pb_ratio=1.30 / aq=3:0.50
Language : English
Default : Yes
Forced : No

Audio #1
ID : 2
Format : E-AC-3
Format/Info : Enhanced Audio Coding 3
Codec ID : A_EAC3
Duration : 1 h 43 min
Bit rate mode : Constant
Bit rate : 224 kb/s
Channel(s) : 2 channels
Channel positions : Front: L R
Sampling rate : 48.0 kHz
Frame rate : 187.500 FPS (256 SPF)
Compression mode : Lossy
Stream size : 166 MiB (3%)
Language : English
Service kind : Complete Main
Default : Yes
Forced : No

Audio #2
ID : 3
Format : AAC
Format/Info : Advanced Audio Codec
Format profile : LC
Codec ID : A_AAC-2
Duration : 1 h 42 min
Bit rate : 218 kb/s
Channel(s) : 2 channels
Channel positions : Front: L R
Sampling rate : 48.0 kHz
Frame rate : 46.875 FPS (1024 SPF)
Compression mode : Lossy
Delay relative to video : 22 s 145 ms
Stream size : 160 MiB (3%)
Language : Spanish
Default : No
Forced : No

Audio #3
ID : 4
Format : AAC
Format/Info : Advanced Audio Codec
Format profile : LC
Codec ID : A_AAC-2
Duration : 1 h 42 min
Bit rate : 205 kb/s
Channel(s) : 2 channels
Channel positions : Front: L R
Sampling rate : 48.0 kHz
Frame rate : 46.875 FPS (1024 SPF)
Compression mode : Lossy
Delay relative to video : 22 s 245 ms
Stream size : 151 MiB (3%)
Title : Audio Commentary by Paul Schrader
Language : English
Default : No
Forced : No

Text #1
ID : 5
Format : UTF-8
Codec ID : S_TEXT/UTF8
Codec ID/Info : UTF-8 Plain Text
Duration : 1 h 34 min
Bit rate : 54 b/s
Count of elements : 821
Stream size : 37.6 KiB (0%)
Language : Spanish
Default : Yes
Forced : No

Text #2
ID : 6
Format : UTF-8
Codec ID : S_TEXT/UTF8
Codec ID/Info : UTF-8 Plain Text
Duration : 1 h 34 min
Bit rate : 47 b/s
Count of elements : 819
Stream size : 32.6 KiB (0%)
Language : English
Default : No
Forced : No

Menu
00:00:00.000 : en:Chapter 1
00:07:41.040 : en:Chapter 2
00:09:45.360 : en:Chapter 3
00:13:27.760 : en:Chapter 4
00:16:18.240 : en:Chapter 5
00:19:47.880 : en:Chapter 6
00:22:09.320 : en:Chapter 7
00:24:42.960 : en:Chapter 8
00:35:37.840 : en:Chapter 9
00:40:08.000 : en:Chapter 10
00:46:46.800 : en:Chapter 11
00:50:45.080 : en:Chapter 12
00:52:48.040 : en:Chapter 13
00:55:22.120 : en:Chapter 14
00:59:08.400 : en:Chapter 15
01:09:01.640 : en:Chapter 16
01:12:43.880 : en:Chapter 17
01:16:56.040 : en:Chapter 18
01:19:19.640 : en:Chapter 19
01:32:02.640 : en:Chapter 20
01:35:23.760 : en:Chapter 21


[/code]


Imagen


Audio y sub:

- Para la sincro, audio extraído de un Dvdrip dual que circula por la mula, gracias por compartirlo. 8)

- Para los sub en castellano e ingles de opensubtitles.

- Por sugerencia de Cirlot, incluido el audiocomentario del propio Schrader :wink: .



CAPTURAS

Imagen
Imagen
Imagen
Imagen
Imagen
Imagen
Imagen
Imagen
Imagen




Enlaces de descarga

Imagen

eD2K link 1992-Light.Sleeper.WEBRip.720p.AC3.AAC[DMMD].mkv [4.71 Gb] 

Avatar de Usuario
gatatitania
 
Mensajes: 3764
Registrado: 16 Oct 2012, 18:27
Ubicación: Gatatitania es un gato hambriento, superviviente del planeta gatatitania...
Agradecido : 2022 veces
Agradecimiento recibido: 871 veces

Re: Light Sleeper (Paul Schrader, 1992) WEBRip 720p Dual SE

Mensaje por gatatitania » 13 Ene 2018, 21:16

¡Gracias, DMMD! :aplauso: :aplauso: :aplauso:

Avatar de Usuario
Bunker
 
Mensajes: 5109
Registrado: 03 Oct 2012, 00:05
Agradecido : 3 veces
Agradecimiento recibido: 1265 veces

Re: Light Sleeper (Paul Schrader, 1992) WEBRip 720p Dual SE

Mensaje por Bunker » 13 Ene 2018, 21:50

Muchas gracias.

james mason
 
Mensajes: 869
Registrado: 03 Oct 2012, 11:31
Ubicación: En algún lugar de Extremadura
Agradecimiento recibido: 258 veces

Re: Light Sleeper (Paul Schrader, 1992) WEBRip 720p Dual SE

Mensaje por james mason » 13 Ene 2018, 21:51

Muchas gracias, compañero!
De lo mejor de Schrader.

Un saludo :hi:

Avatar de Usuario
Gorkus
 
Mensajes: 470
Registrado: 27 Oct 2012, 20:59
Agradecido : 14 veces
Agradecimiento recibido: 163 veces

Re: Light Sleeper (Paul Schrader, 1992) WEBRip 720p Dual SE

Mensaje por Gorkus » 13 Ene 2018, 23:00

Fantástica copia para la mejor peli de Schrader :hi:

Avatar de Usuario
barracus
 
Mensajes: 41
Registrado: 05 Nov 2017, 13:49
Agradecido : 28 veces
Agradecimiento recibido: 17 veces

Re: Light Sleeper (Paul Schrader, 1992) WEBRip 720p Dual SE

Mensaje por barracus » 14 Ene 2018, 00:09

+1 :aplauso:

xeneise007
 
Mensajes: 759
Registrado: 08 Ene 2013, 12:19
Ubicación: Reino de Aragón
Agradecido : 909 veces
Agradecimiento recibido: 179 veces

Re: Light Sleeper (Paul Schrader, 1992) WEBRip 720p Dual SE

Mensaje por xeneise007 » 14 Ene 2018, 09:46

Gracias DMMD, muy buena peli. :hi:

fruega
 
Mensajes: 301
Registrado: 19 Oct 2012, 20:41
Agradecimiento recibido: 89 veces

Re: Light Sleeper (Paul Schrader, 1992) WEBRip 720p Dual SE

Mensaje por fruega » 14 Ene 2018, 11:00

Muchas gracias.

Avatar de Usuario
Arthur James Hamp
 
Mensajes: 1222
Registrado: 06 May 2016, 11:47
Agradecido : 1589 veces
Agradecimiento recibido: 1957 veces

Re: Light Sleeper (Paul Schrader, 1992) WEBRip 720p Dual SE

Mensaje por Arthur James Hamp » 14 Ene 2018, 11:38

Muchas gracias DMMD. :genial: :aplauso: :aplauso:
"Cuando tu cabeza dice una cosa y toda tu vida dice la otra, la cabeza siempre pierde" (Cayo Largo)

Avatar de Usuario
yojimbo
 
Mensajes: 7433
Registrado: 18 Oct 2012, 14:25
Agradecido : 6874 veces
Agradecimiento recibido: 1419 veces

Re: Light Sleeper (Paul Schrader, 1992) WEBRip 720p Dual SE

Mensaje por yojimbo » 14 Ene 2018, 12:10

Muchas gracias, DMMD.

Responder

Volver a “Largos Contemporáneos”