Rubber Johnny (Chris Cunningham, 2005) HQ 720p

Puntuación
Sin
puntuar

Moderador: loperena

Reglas del Foro
No se admiten publicaciones de películas cuya fecha de producción sea inferior a tres años completos. Norma de los tres años.
Responder
Avatar de Usuario
FrOnkY
 
Mensajes: 917
Registrado: 16 Oct 2012, 15:02
Agradecimiento recibido: 1335 veces

Reino Unido Rubber Johnny (Chris Cunningham, 2005) HQ 720p

Mensaje por FrOnkY » 30 Oct 2014, 20:40

Imagen
Imagen
Imagen

IMDb

GUIÓN Aphex Twin (Richard D. James)
MÚSICA Aphex Twin
FOTOGRAFÍA Rob Bliss, Alex Rutterford
REPARTO Elvis, Percy Rutterford, Chris Cunningham
PRODUCCIÓN Warp Films / RSA Films
SINOPSIS RJ

Código: Seleccionar todo

Rubber.Johnny.2005.HQ.720p.x264.AC3.[FrOnkY].mkv

Format                                   : Matroska
Format version                           : Version 4 / Version 2
File size                                : 444 MiB
Duration                                 : 6mn 0s
Overall bit rate                         : 10.3 Mbps
Writing application                      : mkvmerge v6.9.1 ('Blue Panther') 32bit built on Apr 18 2014 18:15:44
Writing library                          : libebml v1.3.0 + libmatroska v1.4.1
Attachements                             : RubberJohnny1.jpg / RubberJohnny2.jpg / RubberJohnny3.jpg

Video
ID                                       : 1
Format                                   : AVC
Format/Info                              : Advanced Video Codec
Format profile                           : High@L4.1
Format settings, CABAC                   : Yes
Format settings, ReFrames                : 9 frames
Codec ID                                 : V_MPEG4/ISO/AVC
Duration                                 : 6mn 0s
Bit rate                                 : 9 999 Kbps
Width                                    : 1 200 pixels
Height                                   : 720 pixels
Display aspect ratio                     : 1.667
Frame rate mode                          : Constant
Frame rate                               : 25.000 fps
Color space                              : YUV
Chroma subsampling                       : 4:2:0
Bit depth                                : 8 bits
Scan type                                : Progressive
Bits/(Pixel*Frame)                       : 0.463
Stream size                              : 421 MiB (95%)
Writing library                          : x264 core 142 r2479 dd79a61
Language                                 : English
Default                                  : Yes
Forced                                   : No

Audio
ID                                       : 2
Format                                   : AC-3
Format/Info                              : Audio Coding 3
Mode extension                           : CM (complete main)
Format settings, Endianness              : Big
Codec ID                                 : A_AC3
Duration                                 : 6mn 0s
Bit rate mode                            : Constant
Bit rate                                 : 320 Kbps
Channel(s)                               : 2 channels
Channel positions                        : Front: L R
Sampling rate                            : 48.0 KHz
Bit depth                                : 16 bits
Stream size                              : 13.8 MiB (3%)
Language                                 : English
Default                                  : Yes
Forced                                   : No
Imagen


eD2K link Imagen


 Enlace magnet
Imagen
Imagen

Avatar de Usuario
Bunker
 
Mensajes: 5200
Registrado: 03 Oct 2012, 00:05
Agradecido : 3 veces
Agradecimiento recibido: 1343 veces

Re: Rubber Johnny (Chris Cunningham, 2005) HQ 720p

Mensaje por Bunker » 30 Oct 2014, 21:14

¡Qué bueno, una de perritos! Para ver en familia, gracias, FrEAkY.

Avatar de Usuario
yojimbo
 
Mensajes: 9295
Registrado: 18 Oct 2012, 14:25
Agradecido : 9313 veces
Agradecimiento recibido: 2358 veces

Re: Rubber Johnny (Chris Cunningham, 2005) HQ 720p

Mensaje por yojimbo » 30 Oct 2014, 21:22

Muchas gracias, FrOnkY.

jail
 
Mensajes: 6265
Registrado: 18 Oct 2012, 15:34
Agradecido : 6857 veces
Agradecimiento recibido: 1977 veces

Re: Rubber Johnny (Chris Cunningham, 2005) HQ 720p

Mensaje por jail » 31 Oct 2014, 00:33

Recuerdos del 'Rubber soul' Beatlero. Me trae.
Perro y dibujos=me encanta.
Y para mañana/hoy, Halloween, ¿qué? ¿No queda nada en la recámara?

Feliz noche de difuntos, Fron y otros.

Avatar de Usuario
FrOnkY
 
Mensajes: 917
Registrado: 16 Oct 2012, 15:02
Agradecimiento recibido: 1335 veces

Re: Rubber Johnny (Chris Cunningham, 2005) HQ 720p

Mensaje por FrOnkY » 31 Oct 2014, 12:11

jail escribió:Y para mañana/hoy, Halloween, ¿qué? ¿No queda nada en la recámara?
Imagen
Imagen
Imagen

jail
 
Mensajes: 6265
Registrado: 18 Oct 2012, 15:34
Agradecido : 6857 veces
Agradecimiento recibido: 1977 veces

Re: Rubber Johnny (Chris Cunningham, 2005) HQ 720p

Mensaje por jail » 31 Oct 2014, 12:44

FrOnkY escribió:
jail escribió:Y para mañana/hoy, Halloween, ¿qué? ¿No queda nada en la recámara?
Imagen
Panda chihuahuas: ¡Terrorífico! Y no va de coña.

Responder

Volver a “Cortos Contemporáneos”