Rhubarb Rhubarb (Eric Sykes, 1980) DVDRip

Puntuación
Sin
puntuar

Moderador: loperena

Reglas del Foro
No se admiten publicaciones de películas cuya fecha de producción sea inferior a tres años completos. Norma de los tres años.
Responder
Avatar de Usuario
Initiand
 
Mensajes: 536
Registrado: 21 Oct 2012, 19:59
Agradecido : 269 veces
Agradecimiento recibido: 1205 veces

Reino Unido Rhubarb Rhubarb (Eric Sykes, 1980) DVDRip

Mensaje por Initiand » 29 Mar 2014, 01:49

Eric Sykes-Rhubarb Rhubarb (1980) DVDRip x264 Sin diálogos
Imagen
Rhubarb Rhubarb
Director: Eric Sykes
Written By: Eric Sykes
Produced By: David Clark
Release Date: 15 December 1980 (UK)
1980
28 mins
Comedy
Actor: Tommy Cooper, Eric Sykes, Jimmy Edwards, Bob Todd
http://www.imdb.com/title/tt0081425/?ref_=fn_al_tt_4

When a police inspector becomes so intent on winning a round of golf against a vicar, despite his lack of ability at the game, he employs his constable to furtively disentangle his ball from the odd spots in which it usually comes to rest – while his opponent looks for help from a higher power…
Said help takes on an increasingly miraculous appearance, to the extent of inanimate objects appearing to move in order to block the inspector’s shots. However, when the vicar attempts to lie about the number of shots it took to free his ball from a sand trap he gets his comeuppance from a bolt of lightning.
Like The Plank before it this was a Television remake of a 1969 Eric Sykes film of the same name. Made by Thames Television as a one off, it featured an all star cast. There was no speech in this short film there are various references to Rhubarb, for example, the golf game takes place at the Royal Rhubarb golf course, and at one point a character is seen reading a newspaper called the Daily Rhubarb whose headlines consist entirely of the word ‘rhubarb’=ruibarbo.) The word itself appears only once but is repeated many times.

Código: Seleccionar todo

Complete name                    : D:\Share\Eric Sykes-Rhubarb Rhubarb (1980) DVDRip x264 by InI no dialog.mkv
Format                           : Matroska
File size                        : 415 MiB
Duration                         : 27mn 50s
Overall bit rate                 : 2 084 Kbps
Encoded date                     : UTC 2014-03-23 15:33:48
Writing application              : mkvmerge v6.8.0 ('Theme for Great Cities') 32bit built on Mar  2 2014 21:27:07
Writing library                  : libebml v1.3.0 + libmatroska v1.4.1

Video
ID                               : 1
Format                           : AVC
Format/Info                      : Advanced Video Codec
Format profile                   : High@L3.1
Format settings, CABAC           : Yes
Format settings, ReFrames        : 4 frames
Codec ID                         : V_MPEG4/ISO/AVC
Duration                         : 27mn 50s
Bit rate                         : 1 890 Kbps
Width                            : 720 pixels
Height                           : 528 pixels
Display aspect ratio             : 4:3
Frame rate                       : 25.000 fps
Color space                      : YUV
Chroma subsampling               : 4:2:0
Bit depth                        : 8 bits
Scan type                        : Progressive
Bits/(Pixel*Frame)               : 0.199
Stream size                      : 368 MiB (89%)

Audio
ID                               : 2
Format                           : AC-3
Format/Info                      : Audio Coding 3
Mode extension                   : CM (complete main)
Codec ID                         : A_AC3
Duration                         : 27mn 50s
Bit rate mode                    : Constant
Bit rate                         : 192 Kbps
Channel(s)                       : 2 channels
Channel positions                : Front: L R
Sampling rate                    : 48.0 KHz
Bit depth                        : 16 bits
Compression mode                 : Lossy
Stream size                      : 38.2 MiB (9%)
Language                         : English

Imagen
Imagen
Imagen
Imagen
Imagen

Sin diálogos
eD2K link Eric Sykes-Rhubarb Rhubarb (1980) DVDRip x264 by InI no dialog.mkv [414.84 Mb] 
enjoy

Avatar de Usuario
Bunker
 
Mensajes: 5200
Registrado: 03 Oct 2012, 00:05
Agradecido : 3 veces
Agradecimiento recibido: 1342 veces

Re: Rhubarb Rhubarb (Eric Sykes, 1980) DVDRip

Mensaje por Bunker » 29 Mar 2014, 02:15

...nks.

Avatar de Usuario
yojimbo
 
Mensajes: 9295
Registrado: 18 Oct 2012, 14:25
Agradecido : 9313 veces
Agradecimiento recibido: 2357 veces

Re: Rhubarb Rhubarb (Eric Sykes, 1980) DVDRip

Mensaje por yojimbo » 29 Mar 2014, 11:27

Thanks, Initiand.

Avatar de Usuario
JGUTII
 
Mensajes: 1627
Registrado: 19 Oct 2012, 05:57
Ubicación: Ciudad del Betis
Agradecido : 5004 veces
Agradecimiento recibido: 117 veces

Re: Rhubarb Rhubarb (Eric Sykes, 1980) DVDRip

Mensaje por JGUTII » 31 Mar 2014, 10:34

Muchas gracias, Initiand. :hi:
Imagen

Avatar de Usuario
JoeRaymond
 
Mensajes: 973
Registrado: 16 Oct 2012, 15:29
Agradecido : 945 veces
Agradecimiento recibido: 143 veces

Re: Rhubarb Rhubarb (Eric Sykes, 1980) DVDRip

Mensaje por JoeRaymond » 04 Abr 2014, 12:41

Thanks, Initiant.

Avatar de Usuario
yojimbo
 
Mensajes: 9295
Registrado: 18 Oct 2012, 14:25
Agradecido : 9313 veces
Agradecimiento recibido: 2357 veces

Re: Rhubarb Rhubarb (Eric Sykes, 1980) DVDRip

Mensaje por yojimbo » 18 Jul 2014, 19:14

Dejo la sinopsis que he agregado a FA.

Sinopsis: Un inspector de policía y un vicario se escaquean del trabajo para jugar un partido de golf en el "Royal Rhubarb Golf Club". El inspector lleva a uno de sus subordinados a fin de trucar la partida, pero el vicario cuenta con la ayuda divina. (FILMAFFINITY)

Saludos.

Responder

Volver a “Cortos Contemporáneos”