It's Your Move (Eric Sykes, 1982) DVDRip

Puntuación
Sin
puntuar

Moderador: loperena

Reglas del Foro
No se admiten publicaciones de películas cuya fecha de producción sea inferior a tres años completos. Norma de los tres años.
Responder
Avatar de Usuario
Initiand
 
Mensajes: 536
Registrado: 21 Oct 2012, 19:59
Agradecido : 269 veces
Agradecimiento recibido: 1205 veces

Reino Unido It's Your Move (Eric Sykes, 1982) DVDRip

Mensaje por Initiand » 23 Mar 2014, 22:51

Eric Sykes-It's your move (1982) DVDRip x264 no dialog
Imagen
It’s Your Move
1982
Directed by Eric Sykes
25 mins
Producer Dennis Kirkland
Writer Eric Sykes
Editor Trevor Waite
Cast: Eric Sykes Richard Briers Tommy Cooper Bernard Cribbins Jimmy Edwards Irene Handl Brian Murphy Andrew Sachs Sylvia Syms Bob Todd Johnny Vyvyan
http://www.imdb.com/title/tt0121410/?ref_=fn_al_tt_3

Richard Briers and Sylvia Syms move into their new detached suburban London home with the assistance of Bumsteads incompetent removal men; All the chaos is overseen by policeman on the beat Jimmy Edwards, neighbour Bernard Cribbins and grand old lady Irene Handle in her chauffeur-driven Mini.
This is English Humour and that's what makes it difficult to understand?

http://en.wikipedia.org/wiki/Eric_Sykes

Código: Seleccionar todo

Complete name                    : It's your move DVDR\Eric Sykes-It's your move (1982) DVDRip x264 by InI no dialog.mkv
Format                           : Matroska
File size                        : 391 MiB
Duration                         : 26mn 15s
Overall bit rate                 : 2 084 Kbps
Encoded date                     : UTC 2014-03-23 06:28:39
Writing application              : mkvmerge v6.8.0 ('Theme for Great Cities') 32bit built on Mar  2 2014 21:27:07
Writing library                  : libebml v1.3.0 + libmatroska v1.4.1

Video
ID                               : 1
Format                           : AVC
Format/Info                      : Advanced Video Codec
Format profile                   : High@L3.1
Format settings, CABAC           : Yes
Format settings, ReFrames        : 4 frames
Codec ID                         : V_MPEG4/ISO/AVC
Duration                         : 26mn 15s
Bit rate                         : 1 890 Kbps
Width                            : 720 pixels
Height                           : 528 pixels
Display aspect ratio             : 4:3
Frame rate                       : 25.000 fps
Color space                      : YUV
Chroma subsampling               : 4:2:0
Bit depth                        : 8 bits
Scan type                        : Progressive
Bits/(Pixel*Frame)               : 0.199
Stream size                      : 348 MiB (89%)
Writing library                  : x264 core 138 r2358 9e941d1
Language                         : English

Audio
ID                               : 2
Format                           : AC-3
Format/Info                      : Audio Coding 3
Mode extension                   : CM (complete main)
Codec ID                         : A_AC3
Duration                         : 26mn 15s
Bit rate mode                    : Constant
Bit rate                         : 192 Kbps
Channel(s)                       : 2 channels
Channel positions                : Front: L R
Sampling rate                    : 48.0 KHz
Bit depth                        : 16 bits
Compression mode                 : Lossy
Stream size                      : 36.1 MiB (9%)
Language                         : English
Imagen
Imagen
Imagen
Imagen

Sin diálogos:
eD2K link Eric Sykes-It's your move (1982) DVDRip x264 by InI no dialog.mkv [391.37 Mb] 
enjoy

Avatar de Usuario
Bunker
 
Mensajes: 5200
Registrado: 03 Oct 2012, 00:05
Agradecido : 3 veces
Agradecimiento recibido: 1342 veces

Re: It's your move (Eric Sykes, 1982) DVDRip Ningunos diálogos

Mensaje por Bunker » 24 Mar 2014, 00:49

Thanks again. :)

garitero
 
Mensajes: 106
Registrado: 22 Oct 2012, 20:51
Agradecido : 3 veces
Agradecimiento recibido: 3 veces

Re: It's your move (Eric Sykes, 1982) DVDRip

Mensaje por garitero » 24 Mar 2014, 01:28

Thanks.

Avatar de Usuario
yojimbo
 
Mensajes: 9295
Registrado: 18 Oct 2012, 14:25
Agradecido : 9313 veces
Agradecimiento recibido: 2357 veces

Re: It's your move (Eric Sykes, 1982) DVDRip

Mensaje por yojimbo » 24 Mar 2014, 22:05

Thanks Initiand.

Avatar de Usuario
JGUTII
 
Mensajes: 1627
Registrado: 19 Oct 2012, 05:57
Ubicación: Ciudad del Betis
Agradecido : 5004 veces
Agradecimiento recibido: 117 veces

Re: It's Your Move (Eric Sykes, 1982) DVDRip

Mensaje por JGUTII » 26 Mar 2014, 05:59

Muchas gracias, Initiand. :hi:
Imagen

Avatar de Usuario
yojimbo
 
Mensajes: 9295
Registrado: 18 Oct 2012, 14:25
Agradecido : 9313 veces
Agradecimiento recibido: 2357 veces

Re: It's Your Move (Eric Sykes, 1982) DVDRip

Mensaje por yojimbo » 16 Jul 2014, 19:24

Agrego una sinopsis en español.

Sinopsis: Un joven e imprudente matrimonio confía en un inepto equipo de mudanzas para mudarse a su nueva casa. (FILMAFFINITY)

Saludos.

Responder

Volver a “Cortos Contemporáneos”