The War Wagon (Burt Kennedy, 1967) Ver índice

Puntuación
6/10
3 votos

Ataque al carro blindado

Moderador: Monsieur Lange

Responder
Avatar de Usuario
locotus
 
Mensajes: 936
Registrado: 16 Oct 2012, 18:18
Agradecido : 45 veces
Agradecimiento recibido: 5674 veces

Estados Unidos The War Wagon (Burt Kennedy, 1967) Ver índice

Mensaje por locotus » 26 Dic 2012, 19:02

Índice de Ripeos: -

*Nota: Tenga en cuenta la calidad de cada ripeo para hacer la mejor elección. Haga click aquí para más información.
Imagen
DVDRip Dual Inglés-Español con subtitulos en ambos idiomas dentro del contenedor MKV.
http://www.imdb.com/title/tt0062472/
Director: Burt Kennedy
Writing credits : Clair Huffaker (screenplay-novel "Badman")
Reparto:
John Wayne ... Taw Jackson
Kirk Douglas ... Lomax
Howard Keel ... Levi Walking Bear
Robert Walker Jr.... Billy Hyatt (as Robert Walker)
Keenan Wynn ... Wes Fletcher
Bruce Cabot ... Pierce
Joanna Barnes ... Lola
Valora Noland ... Kate
Bruce Dern ... Hammond
Gene Evans ... Deputy Hoag
Terry Wilson ... Sheriff Strike
Don Collier ... Shack
Sheb Wooley ... Snyder
Ann McCrea ... Felicia
Runtime: 96 min
Sound Mix: Mono (Westrex Recording System)
Color: Color (Technicolor)
Aspect Ratio: 2.35 : 1

SINOPSIS: Taw Jackson, un preso que disfruta de libertad provisional, quiere aprovechar la ocasión para vengarse de Frank Pierce, el hombre que unos años antes, le tendió una trampa que lo condujo a la cárcel. El objetivo de Pierce era quedarse con la finca de Jackson, en la que se había descubierto un filón de oro. Pero Jackson está decidido a desbaratar los planes de su enemigo. (FILMAFFINITY)

Capturas:
ImagenImagenImagenImagen

ImagenImagenImagenImagen
Info:

Código: Seleccionar todo

General
Unique ID                                : 209646250488936376661102718842441416341 (0x9DB8662EFD83DEA68F468DB9CBA9BE95)
Complete name                            : The War Wagon (1967) DVDRip Dual.mkv
Format                                   : Matroska
Format version                           : Version 2
File size                                : 1.73 GiB
Duration                                 : 1h 36mn
Overall bit rate                         : 2 562 Kbps
Encoded date                             : UTC 2012-11-26 19:36:52
Writing application                      : mkvmerge v5.8.0 ('No Sleep / Pillow') built on Sep  2 2012 15:37:04
Writing library                          : libebml v1.2.3 + libmatroska v1.3.0

Video
ID                                       : 1
Format                                   : AVC
Format/Info                              : Advanced Video Codec
Format profile                           : High@L4.1
Format settings, CABAC                   : Yes
Format settings, ReFrames                : 4 frames
Muxing mode                              : Header stripping
Codec ID                                 : V_MPEG4/ISO/AVC
Duration                                 : 1h 36mn
Bit rate                                 : 2 176 Kbps
Width                                    : 720 pixels
Height                                   : 304 pixels
Display aspect ratio                     : 2.35:1
Frame rate mode                          : Constant
Frame rate                               : 25.000 fps
Color space                              : YUV
Chroma subsampling                       : 4:2:0
Bit depth                                : 8 bits
Scan type                                : Progressive
Bits/(Pixel*Frame)                       : 0.398
Stream size                              : 1.43 GiB (83%)
Writing library                          : x264 core 129 r2230 1cffe9f
Encoding settings                        : cabac=1 / ref=3 / deblock=1:-1:-1 / analyse=0x3:0x113 / me=hex / subme=7 / psy=1 / psy_rd=1.00:0.15 / mixed_ref=1 / me_range=16 / chroma_me=1 / trellis=2 / 8x8dct=1 / cqm=0 / deadzone=21,11 / fast_pskip=1 / chroma_qp_offset=-3 / threads=6 / lookahead_threads=1 / sliced_threads=0 / nr=0 / decimate=1 / interlaced=0 / bluray_compat=0 / constrained_intra=0 / bframes=5 / b_pyramid=2 / b_adapt=2 / b_bias=0 / direct=1 / weightb=1 / open_gop=0 / weightp=2 / keyint=250 / keyint_min=25 / scenecut=40 / intra_refresh=0 / rc_lookahead=40 / rc=2pass / mbtree=1 / bitrate=2176 / ratetol=1.0 / qcomp=0.60 / qpmin=0 / qpmax=69 / qpstep=4 / cplxblur=20.0 / qblur=0.5 / ip_ratio=1.40 / aq=1:1.00
Default                                  : Yes
Forced                                   : No

Audio #1
ID                                       : 2
Format                                   : AC-3
Format/Info                              : Audio Coding 3
Mode extension                           : CM (complete main)
Format settings, Endianness              : Big
Muxing mode                              : Header stripping
Codec ID                                 : A_AC3
Duration                                 : 1h 36mn
Bit rate mode                            : Constant
Bit rate                                 : 192 Kbps
Channel(s)                               : 2 channels
Channel positions                        : Front: L R
Sampling rate                            : 48.0 KHz
Bit depth                                : 16 bits
Compression mode                         : Lossy
Stream size                              : 133 MiB (7%)
Language                                 : English
Default                                  : Yes
Forced                                   : No

Audio #2
ID                                       : 3
Format                                   : AC-3
Format/Info                              : Audio Coding 3
Format profile                           : Dolby Digital
Mode extension                           : CM (complete main)
Format settings, Endianness              : Big
Muxing mode                              : Header stripping
Codec ID                                 : A_AC3
Duration                                 : 1h 36mn
Bit rate mode                            : Constant
Bit rate                                 : 192 Kbps
Channel(s)                               : 2 channels
Channel positions                        : Front: L R
Sampling rate                            : 48.0 KHz
Bit depth                                : 16 bits
Compression mode                         : Lossy
Delay relative to video                  : 28ms
Stream size                              : 133 MiB (7%)
Language                                 : Spanish
Default                                  : No
Forced                                   : No

Text #1
ID                                       : 4
Format                                   : VobSub
Muxing mode                              : zlib
Codec ID                                 : S_VOBSUB
Codec ID/Info                            : The same subtitle format used on DVDs
Language                                 : English
Default                                  : No
Forced                                   : No

Text #2
ID                                       : 5
Format                                   : VobSub
Muxing mode                              : zlib
Codec ID                                 : S_VOBSUB
Codec ID/Info                            : The same subtitle format used on DVDs
Language                                 : Spanish
Default                                  : No
Forced                                   : No
Elink:
eD2K link The War Wagon (1967) DVDRip Dual.mkv [1.73 Gb] 
Última edición por locotus el 24 Abr 2013, 20:19, editado 1 vez en total.
“Si no lees los periódicos estás desinformado”.
Y si los lees estás mal informado”.
Denzel Washington.

Avatar de Usuario
juannavarrete
 
Mensajes: 2364
Registrado: 16 Oct 2012, 15:21
Ubicación: En la frontera de la webtern
Agradecido : 9 veces
Agradecimiento recibido: 2190 veces

Re: The War Wagon (Burt Kennedy, 1967) DVDRip Dual SE

Mensaje por juannavarrete » 26 Dic 2012, 23:35

LOCOTUS, esta peli me la llevo a LEYENDA...
donde a unos pocos ... sin ser una gran película aunque si divertida ... nos va a hacer muy felíz.

Imagen
Muchas gracias y...
Un disparo…Imagen…abrazo
Es necesario para su distribución, dejar las descargas obtenidas en el incoming.
(Lo que es bueno para uno, es bueno para todos)

Avatar de Usuario
yojimbo
 
Mensajes: 10451
Registrado: 18 Oct 2012, 14:25
Agradecido : 9624 veces
Agradecimiento recibido: 2680 veces

Re: The War Wagon (Burt Kennedy, 1967) DVDRip Dual SE

Mensaje por yojimbo » 27 Dic 2012, 22:33

Gracias, locotus. Una buena película.

Saludos.

Avatar de Usuario
viejtigr51
 
Mensajes: 148
Registrado: 16 Oct 2012, 16:48
Ubicación: Rosario, a metros del Paraná
Agradecido : 3 veces
Agradecimiento recibido: 30 veces

Re: The War Wagon (Burt Kennedy, 1967) DVDRip Dual SE

Mensaje por viejtigr51 » 28 Dic 2012, 01:49

Muchas gracias.

Avatar de Usuario
scaramouche
 
Mensajes: 166
Registrado: 19 Oct 2012, 00:19
Agradecido : 2 veces
Agradecimiento recibido: 35 veces

Re: The War Wagon (Burt Kennedy, 1967) DVDRip Dual SE

Mensaje por scaramouche » 13 Feb 2013, 15:48

Muchas gracias, locotus. :genial:

dilsondefreitas
 
Mensajes: 437
Registrado: 11 Nov 2012, 12:49
Agradecido : 3 veces
Agradecimiento recibido: 218 veces

Re: The War Wagon (Burt Kennedy, 1967) DVDRip Dual SE

Mensaje por dilsondefreitas » 22 Abr 2013, 19:22

gratos por este
parabens

Avatar de Usuario
santiagoo
 
Mensajes: 2220
Registrado: 03 Oct 2012, 21:38
Ubicación: Zaragoza, Spain
Agradecido : 379 veces
Agradecimiento recibido: 2596 veces

Estados Unidos The War Wagon (Burt Kennedy, 1967) BDRip 720p Dual SE

Mensaje por santiagoo » 04 Ene 2015, 04:15

HILO PRIMARIO
SitherKiller en DXC (Junio-2013)


ATAQUE AL CARRO BLINDADO (DUAL + SUBTÍTULOS) (1967)
Imagen
FICHA DE LA PELÍCULA

TITULO ORIGINAL: The war wagon
AÑO DE PRODUCCIÓN: 1967
NACIONALIDAD: Estados Unidos
DIRECTOR: Burt Kennedy
REPARTO: John Wayne, Kirk Douglas, Joanna Barnes, Howard Keel, Robert Walker Jr y Keenan Wynn.
SIPNOSIS: Cuando Taw Jackson sale de prisión en libertad condicional, aprovecha para urdir una venganza contra Frank Pierce, que tiempo atrás fue el culpable de que acabara entre rejas, pues le tendió una trampa y se quedó con sus tierras y con el oro que había en ellas. Por ello, Taw no pensará en otra cosa que en recuperar lo suyo, y recluta a Lomax, un antigio rival, que con un grupo variopinto, atacará el carro blindado del título, cargado de fortuna. (DECINE21)
Imagen
DATOS DEL RIPEO

FUENTE: Blu-Ray Mayo 2013 ''The war wagon'' editado por Universal Studios.
VIDEO: H264 MP4 AVC
AUDIO: AC3 192kb Castellano Mono, AC3 256kb Inglés Estéreo.
RESOLUCIÓN: 1280x544
PROPORCIÓN: 2.35:1
FRAMES: 23.976 fps
DURACIÓN: 1:40:37
PESO: 4.45gb
SUBTÍTULOS: Se incluyen en castellano e inglés.

CAPTURAS
Imagen
Imagen
Imagen
Imagen
Imagen
Imagen

ENLACES

PELICULA: eD2K link Ataque.al.carro.blindado.1967.(BDRip.HD.720p.AC3.Dual.[Spanish.English].Subs.[Cas...SitherKiller.mkv [4.45 Gb] 

A disfrutar de la peli

Si repartimos al menos lo que pesa un archivo antes de quitarlo del incoming, nunca habría problemas de fuentes, habría relevos naturales. Las líneas son asimétricas, pero nuestra rutina de subida-bajada no tiene por qué serlo. .

Avatar de Usuario
droid
Administrador del Sitio
 
Mensajes: 8158
Registrado: 12 Sep 2012, 03:37
Agradecido : 3946 veces
Agradecimiento recibido: 6297 veces

Re: The war wagon (Burt Kennedy, 1967) BDRip 720p Dual SE

Mensaje por droid » 04 Ene 2015, 08:51

Muchas gracias por traerla, Santi. :aplauso:

Un saludo. :hi:

jail
 
Mensajes: 6275
Registrado: 18 Oct 2012, 15:34
Agradecido : 6867 veces
Agradecimiento recibido: 1948 veces

Re: The war wagon (Burt Kennedy, 1967) BDRip 720p Dual SE

Mensaje por jail » 04 Ene 2015, 09:31

Gracias, Santi.

Avatar de Usuario
Zerstorers
 
Mensajes: 474
Registrado: 16 Oct 2012, 15:39
Ubicación: En lo más profundo del Universo.
Agradecido : 278 veces
Agradecimiento recibido: 126 veces

Re: The war wagon (Burt Kennedy, 1967) BDRip 720p Dual SE

Mensaje por Zerstorers » 04 Ene 2015, 09:42

Gracias santiagoo, con su permiso publicada en el poblado de leyenda :aplauso: .

Saludos :hi:
Yo soy tu padre Imagen

Responder

Volver a “Largos Modernos”