Trampa mortal (Antonio Santillán, 1963) SATRip VO

Puntuación
4,3/10
3 votos

Moderador: Monsieur Lange

Responder
Avatar de Usuario
DCINE
 
Mensajes: 1706
Registrado: 30 Jul 2016, 20:09
Agradecido : 794 veces
Agradecimiento recibido: 3399 veces

España Trampa mortal (Antonio Santillán, 1963) SATRip VO

Mensaje por DCINE » 10 Mar 2017, 15:52

Hilo anterior

Trampa mortal
1963

Imagen

Imagen

DIRECTOR: Antonio Santillán
PRODUCTORA: Coop. Cinematográfica Constelación
GUIÓN: Enrique Josa, José María Lliro (Historia: José María Lliro)
MÚSICA: Federico Martínez Tudó
FOTOGRAFÍA: Salvador Torres Garriga



ARGUMENTO Raúl, un expresidiario, y Clara, una cabaretera, forman una pareja que trata de llevar una vida normal. Él ha conseguido trabajo y ella quiere dejar el cabaret. Un día un antiguo jefe, que quiere desaparecer, le propone que justifique su supuesta muerte con un supuesto accidente. A pesar de que la gratificación sería de cien mil pesetas, Raúl se niega a participar en el fraude. (FILMAFFINITY) IMDB: http://www.imdb.com/title/tt0056608/



Reparto: Mario Cabré, Enrique Diosdado, Ángel Lombarte, Katia Loritz, Ismael Merlo, Marta Padovan, Gustavo Re, Víctor Valverde


Datos Técnicos:

[code]General:


Complete name : 1963 Trampa mortal (Antonio Santillán, 1963) SATRip VO by mifune.mkv
Format : Matroska
Format version : Version 4 / Version 2
File size : 1.39 GiB
Duration : 1h 15mn
Overall bit rate : 2 632 Kbps
Encoded date : UTC 2016-05-30 22:53:47
Writing application : mkvmerge v7.1.0 ('Good Love') 64bit built on Jul 27 2014 13:06:55
Writing library : libebml v1.3.0 + libmatroska v1.4.1
_STATISTICS_WRITING_APP : mkvmerge v7.1.0 ('Good Love') 64bit built on Jul 27 2014 13:06:55
_STATISTICS_WRITING_DATE_UTC : 2016-05-30 22:53:47
_STATISTICS_TAGS : BPS DURATION NUMBER_OF_FRAMES NUMBER_OF_BYTES
DURATION : 01:15:24.480000000
NUMBER_OF_FRAMES : 188520
NUMBER_OF_BYTES : 108587520

Video
ID : 1
Format : AVC
Format/Info : Advanced Video Codec
Format profile : High@L4.1
Format settings, CABAC : Yes
Format settings, ReFrames : 16 frames
Codec ID : V_MPEG4/ISO/AVC
Duration : 1h 15mn
Bit rate : 2 387 Kbps
Width : 672 pixels
Height : 576 pixels
Display aspect ratio : 16:9
Original display aspect ratio : 1.556
Frame rate : 25.000 fps
Color space : YUV
Chroma subsampling : 4:2:0
Bit depth : 8 bits
Scan type : Progressive
Bits/(Pixel*Frame) : 0.247
Stream size : 1.26 GiB (91%)
Writing library : x264 core 130 r2273 b3065e6
Encoding settings : cabac=1 / ref=16 / deblock=1:-2:-2 / analyse=0x3:0x133 / me=umh / subme=10 / psy=1 / psy_rd=1.00:0.25 / mixed_ref=1 / me_range=24 / chroma_me=1 / trellis=2 / 8x8dct=1 / cqm=0 / deadzone=6,6 / fast_pskip=1 / chroma_qp_offset=-4 / threads=12 / lookahead_threads=2 / sliced_threads=0 / nr=0 / decimate=0 / interlaced=0 / bluray_compat=0 / constrained_intra=0 / bframes=8 / b_pyramid=2 / b_adapt=2 / b_bias=0 / direct=3 / weightb=1 / open_gop=0 / weightp=2 / keyint=250 / keyint_min=25 / scenecut=40 / intra_refresh=0 / rc_lookahead=60 / rc=crf / mbtree=1 / crf=19.5 / qcomp=0.80 / qpmin=0 / qpmax=69 / qpstep=4 / ip_ratio=1.10 / aq=1:0.50
Language : English
Default : Yes
Forced : No
_STATISTICS_WRITING_APP : mkvmerge v7.1.0 ('Good Love') 64bit built on Jul 27 2014 13:06:55
_STATISTICS_WRITING_DATE_UTC : 2016-05-30 22:53:47
_STATISTICS_TAGS : BPS DURATION NUMBER_OF_FRAMES NUMBER_OF_BYTES
DURATION : 01:15:24.520000000
NUMBER_OF_FRAMES : 113113
NUMBER_OF_BYTES : 1378699130

Audio
ID : 2
Format : MPEG Audio
Format version : Version 1
Format profile : Layer 2
Codec ID : A_MPEG/L2
Codec ID/Hint : MP2
Duration : 1h 15mn
Bit rate mode : Constant
Bit rate : 192 Kbps
Channel(s) : 2 channels
Sampling rate : 48.0 KHz
Compression mode : Lossy
Delay relative to video : 11ms
Stream size : 104 MiB (7%)
Default : Yes
Forced : No

[/code]




Capturas:

Imagen
Imagen
Imagen
Imagen

Enlace:

eD2K link 1963 Trampa mortal (Antonio Santillán, 1963) SATRip VO by mifune.mkv [1.39 Gb] 

Avatar de Usuario
Prudencio
 
Mensajes: 5060
Registrado: 16 Oct 2012, 18:46
Agradecido : 5357 veces
Agradecimiento recibido: 2149 veces

Re: Trampa mortal (Antonio Santillán, 1963) SATRip VO

Mensaje por Prudencio » 10 Mar 2017, 18:42

Muchas gracias, DCINE. :hi:

fruega
 
Mensajes: 472
Registrado: 19 Oct 2012, 20:41
Agradecimiento recibido: 179 veces

Re: Trampa mortal (Antonio Santillán, 1963) SATRip VO

Mensaje por fruega » 10 Mar 2017, 19:49

Muchas gracias.

Avatar de Usuario
tuscarola
 
Mensajes: 2293
Registrado: 25 Dic 2012, 20:38
Ubicación: En el Tarragonés
Agradecido : 743 veces
Agradecimiento recibido: 807 veces

Re: Trampa mortal (Antonio Santillán, 1963) SATRip VO

Mensaje por tuscarola » 10 Mar 2017, 21:03

Merci DCINE. Es una pena que no se conserven o por lo menos yo no he visto mucha de la filmografía de Antonio Santillán. Gran doblaje lleva este filme que además nos da la oportunidad de ver actuar a la voz de seda de nuestro doblaje en sus pocas apariciones delante de la cámara; Manuel Cano quien a su vez dobla a Ismael Merlo; también, y este si es más dificil de ver, actua Manuel Alonso otro de la época de oro del doblaje clásico y el gran Mario Cabré.
Imagen
Imagen
Imagen
Imagen
In Memoriam:
Juan Manuel Soriano
Carmen Lombarte
Maribel Casals
Felipe Peña
Alfonso Santigosa
Rafael Navarro

Avatar de Usuario
tonapar1
 
Mensajes: 5032
Registrado: 16 Oct 2012, 20:19
Agradecido : 1073 veces
Agradecimiento recibido: 1663 veces

Re: Trampa mortal (Antonio Santillán, 1963) SATRip VO

Mensaje por tonapar1 » 13 Mar 2017, 17:56

Muchas gracias por el ripeo a dcine y a mifune. Un saludo a ambos.

meliboy
 
Mensajes: 9
Registrado: 02 Dic 2012, 03:13
Agradecimiento recibido: 1 vez

Re: Trampa mortal (Antonio Santillán, 1963) SATRip VO

Mensaje por meliboy » 29 Ago 2017, 16:00

Amigo mifune: Compruebo que los ripeos del canal 8tv, son de excelente calidad. ¿sería posible publicar más dilms emitidos por ese canal? En mi provincia no se puede acceder a dicho canal. Muchas gracias.

Avatar de Usuario
yojimbo
 
Mensajes: 10429
Registrado: 18 Oct 2012, 14:25
Agradecido : 9599 veces
Agradecimiento recibido: 2666 veces

Re: Trampa mortal (Antonio Santillán, 1963) SATRip VO

Mensaje por yojimbo » 29 Ago 2017, 16:53

Muchas gracias, DCINE y mifune.

Avatar de Usuario
DCINE
 
Mensajes: 1706
Registrado: 30 Jul 2016, 20:09
Agradecido : 794 veces
Agradecimiento recibido: 3399 veces

Re: Trampa mortal (Antonio Santillán, 1963) SATRip VO

Mensaje por DCINE » 29 Ago 2017, 21:16

meliboy escribió:Amigo mifune: Compruebo que los ripeos del canal 8tv, son de excelente calidad. ¿sería posible publicar más dilms emitidos por ese canal? En mi provincia no se puede acceder a dicho canal. Muchas gracias.
El problema son los cortes publicitarios y los banners en pantalla, es mejor grabarlas de "la2", aunque no todas las películas que emiten tienen la misma calidad, a veces son buenas copias, otras veces, copias lamentables. Da igual de donde las grabes, van a ser la misma copia.

Avatar de Usuario
mifune
 
Mensajes: 6953
Registrado: 02 Oct 2012, 20:48
Ubicación: Welcome to the Jungle
Agradecido : 9562 veces
Agradecimiento recibido: 9646 veces

Re: Trampa mortal (Antonio Santillán, 1963) SATRip VO

Mensaje por mifune » 29 Ago 2017, 23:48

:hi: Aquí se puede consultar la programación por si tienes interés en alguna de ellas meliboy http://www.8madrid.tv/index.php/program ... ision.html :hi:
NUEVA NORMATIVA SOBRE LA PUBLICACIÓN DE PELÍCULAS EN EL FORO

Avatar de Usuario
sete
 
Mensajes: 4716
Registrado: 22 Dic 2012, 16:10
Agradecido : 239 veces
Agradecimiento recibido: 1470 veces

Re: Trampa mortal (Antonio Santillán, 1963) SATRip VO

Mensaje por sete » 30 Ago 2017, 14:18

Muchas gracias, DCINE y mifune.
:hi:
Este mundo está traicionando a la vida.
José Luis Sampedro

Responder

Volver a “Largos Modernos”