Il Magistrato (Luigi Zampa, 1959) Ver índice

Puntuación
6,7/10
3 votos

El magistrado

Moderador: mifune

Responder
Avatar de Usuario
yojimbo
 
Mensajes: 9386
Registrado: 18 Oct 2012, 14:25
Agradecido : 9416 veces
Agradecimiento recibido: 2398 veces

Re: Il Magistrato (Luigi Zampa, 1959) Ver índice

Mensaje por yojimbo » 24 Oct 2017, 19:29

Muchas gracias, ignacio gonzalez.

Avatar de Usuario
tuscarola
 
Mensajes: 2157
Registrado: 25 Dic 2012, 20:38
Ubicación: En el Tarragonés
Agradecido : 749 veces
Agradecimiento recibido: 803 veces

Re: Il Magistrato (Luigi Zampa, 1959) Ver índice

Mensaje por tuscarola » 25 Oct 2017, 07:08

DCINE creo recordar que prepararás un dual+ subtítulos de este filme....?. No sé si lo entendí bien. Merci ignacio gonzález.
Imagen
Imagen
Imagen
Imagen
In Memoriam:
Juan Manuel Soriano
Carmen Lombarte
Maribel Casals
Felipe Peña
Alfonso Santigosa
Rafael Navarro

Avatar de Usuario
DCINE
 
Mensajes: 1638
Registrado: 30 Jul 2016, 20:09
Agradecido : 886 veces
Agradecimiento recibido: 3282 veces

Re: Il Magistrato (Luigi Zampa, 1959) Ver índice

Mensaje por DCINE » 25 Oct 2017, 07:59

tuscarola escribió:DCINE creo recordar que prepararás un dual+ subtítulos de este filme....?. No sé si lo entendí bien. Merci ignacio gonzález.
En unos días traigo el dual con los subtítulos en castellano

Avatar de Usuario
DCINE
 
Mensajes: 1638
Registrado: 30 Jul 2016, 20:09
Agradecido : 886 veces
Agradecimiento recibido: 3282 veces

Italia Il Magistrato (Luigi Zampa, 1959) DVDRip Dual SE-Ita

Mensaje por DCINE » 10 Nov 2017, 17:37

Hilo anterior
El magistrado (AKA Il Magistrato)
1959

Imagen
ImagenImagen




DIRECTOR: Luigi Zampa
PRODUCTORA: Coproducción Italia-España-Francia
GUIÓN: Pasquale Festa Campanile, Massimo Franciosa, Luigi Zampa
MÚSICA: Renzo Rossellini
FOTOGRAFÍA: Manuel Merino, Gábor Pogány



ARGUMENTO El juez Andrea Morandi (José Suárez) llega el último día del año a una ciudad italiana, donde ha sido destinado. Pocas horas después de su llegada, le comunican que en el puerto se ha cometido un delito. El agredido, Amílcar Creppi, está gravemente herido. Iniciada la investigación, descubre quién es el agresor: un muchacho llamado Orlando (Maurizio Arena), desesperado por el chantaje de Amílcar, al querer percibir un porcentaje por darle trabajo. En realidad, todos los obreros del muelle odian a Amílcar que los tiene sojuzgados. Pero nadie se atreve a hablar. Andrea, presa de una fuerte crisis, presenta la dimisión, convencido de que la justicia consigue solamente castigar los delitos cuando ya han ocurrido. (FILMAFFINITY) IMDB: http://www.imdb.es/title/tt0053031/maindetails

Doblaje Cines 1960: http://www.eldoblaje.com/datos/FichaPel ... sp?id=9419

Reparto: José Suárez, François Périer, Jacqueline Sassard, Massimo Serato, Maurizio Arena, Claudia Cardinale


Datos Técnicos:

Ripeo: Weimar en KG, emulizado por droid
Doblaje: procedente del ripeo de nordlingen
Subtítulos: realizados por ignacio gonzalez

Código: Seleccionar todo

General:

Complete name                    : 1959 El Magistrado (AKA Il Magistrato) (Luigi Zampa, 1959) DVDRip Dual (Spa (Doblaje Cines 1960)-Ita) SE-Ita by Weimar-DCINE.mkv
Format                           : Matroska
Format version                   : Version 4 / Version 2
File size                        : 1.49 GiB
Duration                         : 1h 28mn
Overall bit rate mode            : Variable
Overall bit rate                 : 2 394 Kbps
Movie name                       : 1959 El Magistrado/Il Magistrato (Luigi Zampa, 1959) DVDRip Dual (Spa (Doblaje Cines 1960)-Ita) SE-Ita by Weimar-DCINE.mkv
Encoded date                     : UTC 2017-10-28 20:05:04
Writing application              : mkvmerge v7.1.0 ('Good Love') 32bit built on Jul 27 2014 12:59:18
Writing library                  : libebml v1.3.0 + libmatroska v1.4.1
_STATISTICS_WRITING_APP          : mkvmerge v7.1.0 ('Good Love') 32bit built on Jul 27 2014 12:59:18
_STATISTICS_WRITING_DATE_UTC     : 2017-10-28 20:05:04
_STATISTICS_TAGS                 : BPS DURATION NUMBER_OF_FRAMES NUMBER_OF_BYTES
DURATION                         : 01:26:43.560000000
NUMBER_OF_FRAMES                 : 1369
NUMBER_OF_BYTES                  : 62785

Video
ID                               : 1
Format                           : AVC
Format/Info                      : Advanced Video Codec
Format profile                   : High@L3.1
Format settings, CABAC           : Yes
Format settings, ReFrames        : 8 frames
Codec ID                         : V_MPEG4/ISO/AVC
Duration                         : 1h 28mn
Bit rate                         : 1 943 Kbps
Width                            : 720 pixels
Height                           : 576 pixels
Display aspect ratio             : 4:3
Frame rate                       : 25.000 fps
Standard                         : PAL
Color space                      : YUV
Chroma subsampling               : 4:2:0
Bit depth                        : 8 bits
Scan type                        : Progressive
Bits/(Pixel*Frame)               : 0.187
Stream size                      : 1.18 GiB (79%)
Writing library                  : x264 core 130 r2273 b3065e6
Encoding settings                : cabac=1 / ref=8 / deblock=1:-3:-3 / analyse=0x3:0x133 / me=umh / subme=10 / psy=1 / psy_rd=1.00:0.15 / mixed_ref=1 / me_range=28 / chroma_me=0 / trellis=2 / 8x8dct=1 / cqm=0 / deadzone=21,11 / fast_pskip=0 / chroma_qp_offset=-3 / threads=6 / lookahead_threads=1 / sliced_threads=0 / nr=0 / decimate=0 / interlaced=0 / bluray_compat=0 / constrained_intra=0 / bframes=16 / b_pyramid=2 / b_adapt=2 / b_bias=0 / direct=3 / weightb=1 / open_gop=0 / weightp=2 / keyint=250 / keyint_min=25 / scenecut=40 / intra_refresh=0 / rc_lookahead=60 / rc=2pass / mbtree=1 / bitrate=1943 / ratetol=1.0 / qcomp=0.60 / qpmin=0 / qpmax=69 / qpstep=4 / cplxblur=20.0 / qblur=0.5 / vbv_maxrate=14000 / vbv_bufsize=14000 / nal_hrd=none / ip_ratio=1.40 / aq=1:1.00
Language                         : English
Default                          : Yes
Forced                           : No
_STATISTICS_WRITING_APP          : mkvmerge v7.1.0 ('Good Love') 32bit built on Jul 27 2014 12:59:18
_STATISTICS_WRITING_DATE_UTC     : 2017-10-28 20:05:04
_STATISTICS_TAGS                 : BPS DURATION NUMBER_OF_FRAMES NUMBER_OF_BYTES
DURATION                         : 01:28:57.040000000
NUMBER_OF_FRAMES                 : 133426
NUMBER_OF_BYTES                  : 1296123249

Audio #1
ID                               : 2
Format                           : MPEG Audio
Format version                   : Version 1
Format profile                   : Layer 3
Mode                             : Joint stereo
Mode extension                   : MS Stereo
Codec ID                         : A_MPEG/L3
Codec ID/Hint                    : MP3
Duration                         : 1h 28mn
Bit rate mode                    : Variable
Bit rate                         : 189 Kbps
Channel(s)                       : 2 channels
Sampling rate                    : 44.1 KHz
Compression mode                 : Lossy
Stream size                      : 120 MiB (8%)
Title                            : Doblaje Cines 1960
Language                         : Spanish
Default                          : Yes
Forced                           : Yes

Audio #2
ID                               : 3
Format                           : AC-3
Format/Info                      : Audio Coding 3
Mode extension                   : CM (complete main)
Codec ID                         : A_AC3
Duration                         : 1h 28mn
Bit rate mode                    : Constant
Bit rate                         : 256 Kbps
Channel(s)                       : 2 channels
Channel positions                : Front: L R
Sampling rate                    : 48.0 KHz
Bit depth                        : 16 bits
Compression mode                 : Lossy
Stream size                      : 163 MiB (11%)
Language                         : Italian
Default                          : No
Forced                           : No

Text #1
ID                               : 4
Format                           : UTF-8
Codec ID                         : S_TEXT/UTF8
Codec ID/Info                    : UTF-8 Plain Text
Title                            : Forzados
Language                         : Spanish
Default                          : Yes
Forced                           : Yes

Text #2
ID                               : 5
Format                           : UTF-8
Codec ID                         : S_TEXT/UTF8
Codec ID/Info                    : UTF-8 Plain Text
Title                            : Completos
Language                         : Spanish
Default                          : No
Forced                           : No

Text #3
ID                               : 6
Format                           : UTF-8
Codec ID                         : S_TEXT/UTF8
Codec ID/Info                    : UTF-8 Plain Text
Title                            : Completos SubRip
Language                         : Italian
Default                          : No
Forced                           : No

Text #4
ID                               : 7
Format                           : VobSub
Muxing mode                      : zlib
Codec ID                         : S_VOBSUB
Codec ID/Info                    : The same subtitle format used on DVDs
Title                            : Completos VodSub
Language                         : Italian
Default                          : No
Forced                           : No




Capturas:

ImagenImagen
ImagenImagen
ImagenImagen
ImagenImagen





Enlace:

eD2K link 1959 El Magistrado (AKA Il Magistrato) (Luigi Zampa, 1959) DVDRip Dual (Spa (Dobl...Weimar-DCINE.mkv [1.49 Gb] 

DD: https://mega.nz/#!B8gjHK4B!UKfp0Uvw0NRi ... tnDj_NkY9c
Última edición por DCINE el 10 Nov 2017, 17:41, editado 2 veces en total.

Avatar de Usuario
gatatitania
 
Mensajes: 4811
Registrado: 16 Oct 2012, 18:27
Ubicación: Gatatitania es un gato hambriento, superviviente del planeta gatatitania...
Agradecido : 2537 veces
Agradecimiento recibido: 1490 veces

Re: Il Magistrato (Luigi Zampa, 1959) DVDRip Dual SE-Ita

Mensaje por gatatitania » 10 Nov 2017, 17:40

¡Gracias, Dcine! :aplauso: :aplauso: :aplauso:

Avatar de Usuario
diegof
 
Mensajes: 334
Registrado: 15 May 2017, 14:03
Agradecido : 206 veces
Agradecimiento recibido: 89 veces

Re: Il Magistrato (Luigi Zampa, 1959) DVDRip Dual SE-Ita

Mensaje por diegof » 10 Nov 2017, 17:43

La buscaba desde hace tiempo, muchas gracias, DCINE. Por cierto que el enlace en mega me viene de perlas ahora que tengo el ordenador averiado (el PC en que tengo e-mule).

Un saludo

Avatar de Usuario
sete
 
Mensajes: 4578
Registrado: 22 Dic 2012, 16:10
Agradecido : 250 veces
Agradecimiento recibido: 1413 veces

Re: Il Magistrato (Luigi Zampa, 1959) DVDRip Dual SE-Ita

Mensaje por sete » 10 Nov 2017, 18:04

Muchas gracias, DCINE.
:hi:
Este mundo está traicionando a la vida.
José Luis Sampedro

Avatar de Usuario
carnicerito
 
Mensajes: 2382
Registrado: 16 Oct 2012, 17:03
Agradecido : 4709 veces
Agradecimiento recibido: 3624 veces

Re: Il Magistrato (Luigi Zampa, 1959) DVDRip Dual SE-Ita

Mensaje por carnicerito » 10 Nov 2017, 18:23

Descargada y compartida. Gracias.

Avatar de Usuario
droid
Administrador del Sitio
 
Mensajes: 8143
Registrado: 12 Sep 2012, 03:37
Agradecido : 4650 veces
Agradecimiento recibido: 7037 veces

Re: Il Magistrato (Luigi Zampa, 1959) DVDRip Dual SE-Ita

Mensaje por droid » 10 Nov 2017, 18:42

Pinchada por emule.

Muchas gracias por el curro de la sincro, DCINE. :aplauso: :genial:

Saludos. :hi:

jail
 
Mensajes: 6268
Registrado: 18 Oct 2012, 15:34
Agradecido : 6862 veces
Agradecimiento recibido: 1980 veces

Re: Il Magistrato (Luigi Zampa, 1959) DVDRip Dual SE-Ita

Mensaje por jail » 10 Nov 2017, 20:29

Gracias, DCINE.

Responder

Volver a “Largos Clásicos”