Página 2 de 4

Re: Al-ard (Youssef Chahine, 1969) DVDRip VOSE

Publicado: 21 Nov 2013, 06:10
por janca
Gracias

Re: Al-ard (Youssef Chahine, 1969) DVDRip VOSE

Publicado: 28 Nov 2013, 13:14
por SrNadie
Pincho con alegría!!!! Muchas Gracias por subirlo, compartirlo y por los subtitulos!!!!!
Lo que he visto de Chahine me ha gustado mucho, si esta película "es la mejor" creo que voy a disfrutar como un enano!!!!
Muchas gracias!!!!!!!!

Re: Al-ard (Youssef Chahine, 1969) DVDRip VOSE

Publicado: 07 Dic 2013, 19:39
por Gomorrite
¿En árabe se utiliza una palabra germánica para "tierra" o la similitud es mera coincidencia? :O

Re: Al-ard (Youssef Chahine, 1969) DVDRip VOSE

Publicado: 08 Dic 2013, 12:12
por Juramentado
Gomorrite escribió:¿En árabe se utiliza una palabra germánica para "tierra" o la similitud es mera coincidencia? :O
Buscando en google he encontrado esto:

Imagen

(pongo imagen porque el texto no se podía copiar).

Re: Al-ard (Youssef Chahine, 1969) DVDRip VOSE

Publicado: 02 Mar 2014, 15:25
por jamesdean
Gracias preacher y a todos los implicados por esta maravillosa película egipcia.

Re: Al-ard (Youssef Chahine, 1969) DVDRip VOSE

Publicado: 06 Jul 2014, 15:05
por oskib
Ahora sí me dispongo a conocer a Chahine, comenzando por esta Al-ard. Muchas gracias a todos.

Re: Al-ard (Youssef Chahine, 1969) DVDRip VOSE

Publicado: 16 Jul 2014, 20:59
por Karlitox50
Muchas gracias a todos por esta pelicula, salu2 :hi: :hi: :hi:

Al-ard (Youssef Chahine, 1969) WEBRip 1080p VOSE

Publicado: 13 Sep 2020, 07:44
por jotarapidup
HILO ANTERIOR


Imagen
LA TIERRA

IMDB

La película centra la mirada en un pueblecito cuyos habitantes, humildes campesinos, luchan con heroísmo cotidiano soportando las injusticias del sistema. El telón de fondo es la época en que Egipto aún es una monarquía, y el país padece los efectos del colonialismo inglés. (FILMAFFINITY)

Imagen
Imagen
Imagen
Imagen
Imagen
Imagen
Imagen

Código: Seleccionar todo

General
Unique ID                                : 199285413632085218827180921901246938982 (0x95ECF97CB8EFBE3AA544681E81357F66)
Complete name                            : C:\Users\Desktop\Al ard AKA The Land 1969 1080p.WEB-DL.AAC2.0.x264-SUBS.ENG-ESP-FR-GER.mkv
Format                                   : Matroska
Format version                           : Version 4
File size                                : 3.78 GiB
Duration                                 : 2 h 9 min
Overall bit rate                         : 4 183 kb/s
Encoded date                             : UTC 2020-09-11 05:45:10
Writing application                      : mkvmerge v50.0.0 ('Awakenings') 32-bit
Writing library                          : libebml v1.4.0 + libmatroska v1.6.2

Video
ID                                       : 1
Format                                   : AVC
Format/Info                              : Advanced Video Codec
Format profile                           : High@L3.1
Format settings                          : CABAC / 1 Ref Frames
Format settings, CABAC                   : Yes
Format settings, Reference frames        : 1 frame
Format settings, GOP                     : M=1, N=50
Codec ID                                 : V_MPEG4/ISO/AVC
Duration                                 : 2 h 9 min
Bit rate                                 : 4 000 kb/s
Width                                    : 1 920 pixels
Height                                   : 1 080 pixels
Display aspect ratio                     : 16:9
Frame rate mode                          : Constant
Frame rate                               : 25.000 FPS
Color space                              : YUV
Chroma subsampling                       : 4:2:0
Bit depth                                : 8 bits
Scan type                                : Progressive
Bits/(Pixel*Frame)                       : 0.077
Stream size                              : 3.64 GiB (96%)
Writing library                          : x264 core 148
Encoding settings                        : cabac=1 / ref=1 / deblock=1:0:0 / analyse=0x3:0x113 / me=hex / subme=6 / psy=1 / psy_rd=1.00:0.00 / mixed_ref=0 / me_range=16 / chroma_me=1 / trellis=1 / 8x8dct=1 / cqm=0 / deadzone=21,11 / fast_pskip=1 / chroma_qp_offset=-2 / threads=34 / lookahead_threads=5 / sliced_threads=0 / nr=0 / decimate=1 / interlaced=0 / bluray_compat=0 / constrained_intra=0 / bframes=0 / weightp=1 / keyint=250 / keyint_min=25 / scenecut=0 / intra_refresh=0 / rc_lookahead=30 / rc=abr / mbtree=1 / bitrate=4000 / ratetol=1.0 / qcomp=0.60 / qpmin=0 / qpmax=69 / qpstep=4 / vbv_maxrate=6000 / vbv_bufsize=8000 / nal_hrd=none / filler=0 / ip_ratio=1.40 / aq=1:1.00
Default                                  : Yes
Forced                                   : No

Audio
ID                                       : 2
Format                                   : AAC LC
Format/Info                              : Advanced Audio Codec Low Complexity
Codec ID                                 : A_AAC-2
Duration                                 : 2 h 9 min
Bit rate                                 : 152 kb/s
Channel(s)                               : 2 channels
Channel layout                           : L R
Sampling rate                            : 48.0 kHz
Frame rate                               : 46.875 FPS (1024 SPF)
Compression mode                         : Lossy
Stream size                              : 141 MiB (4%)
Language                                 : Arabic
Default                                  : Yes
Forced                                   : No

Text #1
ID                                       : 3
Format                                   : UTF-8
Codec ID                                 : S_TEXT/UTF8
Codec ID/Info                            : UTF-8 Plain Text
Duration                                 : 2 h 9 min
Bit rate                                 : 57 b/s
Count of elements                        : 1641
Stream size                              : 54.6 KiB (0%)
Language                                 : Spanish
Default                                  : Yes
Forced                                   : No

Text #2
ID                                       : 4
Format                                   : UTF-8
Codec ID                                 : S_TEXT/UTF8
Codec ID/Info                            : UTF-8 Plain Text
Duration                                 : 2 h 8 min
Bit rate                                 : 56 b/s
Count of elements                        : 2121
Stream size                              : 52.9 KiB (0%)
Language                                 : English
Default                                  : No
Forced                                   : No

Text #3
ID                                       : 5
Format                                   : UTF-8
Codec ID                                 : S_TEXT/UTF8
Codec ID/Info                            : UTF-8 Plain Text
Duration                                 : 2 h 8 min
Bit rate                                 : 56 b/s
Count of elements                        : 2188
Stream size                              : 52.9 KiB (0%)
Language                                 : French
Default                                  : No
Forced                                   : No

Text #4
ID                                       : 6
Format                                   : UTF-8
Codec ID                                 : S_TEXT/UTF8
Codec ID/Info                            : UTF-8 Plain Text
Duration                                 : 2 h 8 min
Bit rate                                 : 57 b/s
Count of elements                        : 2188
Stream size                              : 54.4 KiB (0%)
Language                                 : German
Default                                  : No
Forced                                   : No



WEBrip 1080p al que se le sincronizó y agregó el subtitulo en español de Marcos y Donen

Re: Al-ard (Youssef Chahine, 1969) WEBRip 1080P VOSE

Publicado: 13 Sep 2020, 08:23
por ciberyago
Muchas gracias, jotarapidup
Desgraciadamente, no acierto a encontrara cómo bajarla con estas nuevas normas que tenemos que observar...
Gracias igual

Re: Al-ard (Youssef Chahine, 1969) WEBRip 1080P VOSE

Publicado: 13 Sep 2020, 08:44
por Danyyyy
Muchas gracias, jotarapidup. Una de mis películas favoritas (de este mismo director también me encantó "Bab el hadid"), tiene películas muy interesantes el cine africano como es esta misma (y especialmente el cine egipcio), lástima que resulte muchas veces tan inaccesible y falto de traducción al español.