Du côté d'Orouët (Jacques Rozier, 1973) DVDRip VOSE

Puntuación
Sin
puntuar

Moderador: Monsieur Lange

Responder
Gomorrite
 
Mensajes: 29
Registrado: 18 Ago 2013, 12:09

Re: Du côté d'Orouët (Jacques Rozier, 1973) DVDRip VOSE

Mensaje por Gomorrite » 04 Oct 2013, 12:21

Tengo un ripeo de 3GB hecho por mí, si queréis.
Spoiler:
General
Unique ID : 291590341095170154979211400862198576066 (0xDB5E41C6E171209CACA67BB2223AB3C2)
Complete name : Du.cote.d'Orouet.1973.DVDRip.x264-HANDJOB.mkv
Format : Matroska
Format version : Version 4 / Version 2
File size : 3.10 GiB
Duration : 2h 34mn
Overall bit rate : 2 875 Kbps
Encoded date : UTC 2013-09-20 10:39:18
Writing application : mkvmerge v6.2.0 ('Promised Land') built on Apr 28 2013 18:50:30
Writing library : libebml v1.3.0 + libmatroska v1.4.0

Video
ID : 1
Format : AVC
Format/Info : Advanced Video Codec
Format profile : High@L4.0
Format settings, CABAC : Yes
Format settings, ReFrames : 16 frames
Codec ID : V_MPEG4/ISO/AVC
Duration : 2h 34mn
Bit rate : 2 562 Kbps
Width : 718 pixels
Height : 568 pixels
Display aspect ratio : 4:3
Original display aspect ratio : 4:3
Frame rate mode : Constant
Frame rate : 25.000 fps
Color space : YUV
Chroma subsampling : 4:2:0
Bit depth : 8 bits
Scan type : Progressive
Bits/(Pixel*Frame) : 0.251
Stream size : 2.76 GiB (89%)
Writing library : x264 core 130 r2273 b3065e6
Encoding settings : cabac=1 / ref=16 / deblock=1:-3:-3 / analyse=0x3:0x133 / me=umh / subme=11 / psy=1 / psy_rd=1.00:0.15 / mixed_ref=1 / me_range=32 / chroma_me=1 / trellis=2 / 8x8dct=1 / cqm=0 / deadzone=21,11 / fast_pskip=0 / chroma_qp_offset=-3 / threads=6 / lookahead_threads=1 / sliced_threads=0 / nr=0 / decimate=1 / interlaced=0 / bluray_compat=0 / constrained_intra=0 / bframes=16 / b_pyramid=2 / b_adapt=2 / b_bias=0 / direct=3 / weightb=1 / open_gop=0 / weightp=2 / keyint=250 / keyint_min=25 / scenecut=40 / intra_refresh=0 / rc=crf / mbtree=0 / crf=22.2 / qcomp=0.65 / qpmin=0 / qpmax=69 / qpstep=4 / ip_ratio=1.40 / pb_ratio=1.30 / aq=1:0.80
Language : English
Default : Yes
Forced : No
Color primaries : BT.601 PAL
Transfer characteristics : BT.709
Matrix coefficients : BT.601

Audio
ID : 2
Format : AC-3
Format/Info : Audio Coding 3
Mode extension : CM (complete main)
Format settings, Endianness : Big
Codec ID : A_AC3
Duration : 2h 34mn
Bit rate mode : Constant
Bit rate : 256 Kbps
Channel count : 2 channels
Channel positions : Front: L R
Sampling rate : 48.0 KHz
Bit depth : 16 bits
Compression mode : Lossy
Stream size : 283 MiB (9%)
Language : French
Default : Yes
Forced : No

Text
ID : 3
Format : UTF-8
Codec ID : S_TEXT/UTF8
Codec ID/Info : UTF-8 Plain Text
Language : English
Default : Yes
Forced : No

Menu
00:00:00.000 : en:Chapter 1
00:06:26.960 : en:Chapter 2
00:17:32.480 : en:Chapter 3
00:22:57.320 : en:Chapter 4
00:26:27.160 : en:Chapter 5
00:31:56.920 : en:Chapter 6
00:38:42.400 : en:Chapter 7
00:45:49.360 : en:Chapter 8
00:52:20.800 : en:Chapter 9
00:59:20.920 : en:Chapter 10
01:09:35.440 : en:Chapter 11
01:19:37.040 : en:Chapter 12
01:36:31.880 : en:Chapter 13
01:42:18.200 : en:Chapter 14
01:51:40.880 : en:Chapter 15
02:07:55.720 : en:Chapter 16
02:24:31.840 : en:Chapter 17
02:29:08.800 : en:Chapter 18

Avatar de Usuario
eddelon
 
Mensajes: 2243
Registrado: 28 Oct 2012, 01:05
Ubicación: Buenos Aires,Argentina
Agradecido : 2190 veces
Agradecimiento recibido: 366 veces

Re: Du côté d'Orouët (Jacques Rozier, 1973) DVDRip VOSE

Mensaje por eddelon » 04 Oct 2013, 12:29

Gomorrite escribió:Tengo un ripeo de 3GB hecho por mí, si queréis.
Spoiler:
General
Unique ID : 291590341095170154979211400862198576066 (0xDB5E41C6E171209CACA67BB2223AB3C2)
Complete name : Du.cote.d'Orouet.1973.DVDRip.x264-HANDJOB.mkv
Format : Matroska
Format version : Version 4 / Version 2
File size : 3.10 GiB
Duration : 2h 34mn
Overall bit rate : 2 875 Kbps
Encoded date : UTC 2013-09-20 10:39:18
Writing application : mkvmerge v6.2.0 ('Promised Land') built on Apr 28 2013 18:50:30
Writing library : libebml v1.3.0 + libmatroska v1.4.0

Video
ID : 1
Format : AVC
Format/Info : Advanced Video Codec
Format profile : High@L4.0
Format settings, CABAC : Yes
Format settings, ReFrames : 16 frames
Codec ID : V_MPEG4/ISO/AVC
Duration : 2h 34mn
Bit rate : 2 562 Kbps
Width : 718 pixels
Height : 568 pixels
Display aspect ratio : 4:3
Original display aspect ratio : 4:3
Frame rate mode : Constant
Frame rate : 25.000 fps
Color space : YUV
Chroma subsampling : 4:2:0
Bit depth : 8 bits
Scan type : Progressive
Bits/(Pixel*Frame) : 0.251
Stream size : 2.76 GiB (89%)
Writing library : x264 core 130 r2273 b3065e6
Encoding settings : cabac=1 / ref=16 / deblock=1:-3:-3 / analyse=0x3:0x133 / me=umh / subme=11 / psy=1 / psy_rd=1.00:0.15 / mixed_ref=1 / me_range=32 / chroma_me=1 / trellis=2 / 8x8dct=1 / cqm=0 / deadzone=21,11 / fast_pskip=0 / chroma_qp_offset=-3 / threads=6 / lookahead_threads=1 / sliced_threads=0 / nr=0 / decimate=1 / interlaced=0 / bluray_compat=0 / constrained_intra=0 / bframes=16 / b_pyramid=2 / b_adapt=2 / b_bias=0 / direct=3 / weightb=1 / open_gop=0 / weightp=2 / keyint=250 / keyint_min=25 / scenecut=40 / intra_refresh=0 / rc=crf / mbtree=0 / crf=22.2 / qcomp=0.65 / qpmin=0 / qpmax=69 / qpstep=4 / ip_ratio=1.40 / pb_ratio=1.30 / aq=1:0.80
Language : English
Default : Yes
Forced : No
Color primaries : BT.601 PAL
Transfer characteristics : BT.709
Matrix coefficients : BT.601

Audio
ID : 2
Format : AC-3
Format/Info : Audio Coding 3
Mode extension : CM (complete main)
Format settings, Endianness : Big
Codec ID : A_AC3
Duration : 2h 34mn
Bit rate mode : Constant
Bit rate : 256 Kbps
Channel count : 2 channels
Channel positions : Front: L R
Sampling rate : 48.0 KHz
Bit depth : 16 bits
Compression mode : Lossy
Stream size : 283 MiB (9%)
Language : French
Default : Yes
Forced : No

Text
ID : 3
Format : UTF-8
Codec ID : S_TEXT/UTF8
Codec ID/Info : UTF-8 Plain Text
Language : English
Default : Yes
Forced : No

Menu
00:00:00.000 : en:Chapter 1
00:06:26.960 : en:Chapter 2
00:17:32.480 : en:Chapter 3
00:22:57.320 : en:Chapter 4
00:26:27.160 : en:Chapter 5
00:31:56.920 : en:Chapter 6
00:38:42.400 : en:Chapter 7
00:45:49.360 : en:Chapter 8
00:52:20.800 : en:Chapter 9
00:59:20.920 : en:Chapter 10
01:09:35.440 : en:Chapter 11
01:19:37.040 : en:Chapter 12
01:36:31.880 : en:Chapter 13
01:42:18.200 : en:Chapter 14
01:51:40.880 : en:Chapter 15
02:07:55.720 : en:Chapter 16
02:24:31.840 : en:Chapter 17
02:29:08.800 : en:Chapter 18
Sería fantástico Gomorrite :up:

Avatar de Usuario
OrsonHitchcock
 
Mensajes: 389
Registrado: 17 Oct 2012, 13:17
Agradecimiento recibido: 28 veces

Re: Du côté d'Orouët (Jacques Rozier, 1973) DVDRip VOSE

Mensaje por OrsonHitchcock » 04 Oct 2013, 12:31

Gomorrite escribió:Tengo un ripeo de 3GB hecho por mí, si queréis.
Spoiler:
General
Unique ID : 291590341095170154979211400862198576066 (0xDB5E41C6E171209CACA67BB2223AB3C2)
Complete name : Du.cote.d'Orouet.1973.DVDRip.x264-HANDJOB.mkv
Format : Matroska
Format version : Version 4 / Version 2
File size : 3.10 GiB
Duration : 2h 34mn
Overall bit rate : 2 875 Kbps
Encoded date : UTC 2013-09-20 10:39:18
Writing application : mkvmerge v6.2.0 ('Promised Land') built on Apr 28 2013 18:50:30
Writing library : libebml v1.3.0 + libmatroska v1.4.0

Video
ID : 1
Format : AVC
Format/Info : Advanced Video Codec
Format profile : High@L4.0
Format settings, CABAC : Yes
Format settings, ReFrames : 16 frames
Codec ID : V_MPEG4/ISO/AVC
Duration : 2h 34mn
Bit rate : 2 562 Kbps
Width : 718 pixels
Height : 568 pixels
Display aspect ratio : 4:3
Original display aspect ratio : 4:3
Frame rate mode : Constant
Frame rate : 25.000 fps
Color space : YUV
Chroma subsampling : 4:2:0
Bit depth : 8 bits
Scan type : Progressive
Bits/(Pixel*Frame) : 0.251
Stream size : 2.76 GiB (89%)
Writing library : x264 core 130 r2273 b3065e6
Encoding settings : cabac=1 / ref=16 / deblock=1:-3:-3 / analyse=0x3:0x133 / me=umh / subme=11 / psy=1 / psy_rd=1.00:0.15 / mixed_ref=1 / me_range=32 / chroma_me=1 / trellis=2 / 8x8dct=1 / cqm=0 / deadzone=21,11 / fast_pskip=0 / chroma_qp_offset=-3 / threads=6 / lookahead_threads=1 / sliced_threads=0 / nr=0 / decimate=1 / interlaced=0 / bluray_compat=0 / constrained_intra=0 / bframes=16 / b_pyramid=2 / b_adapt=2 / b_bias=0 / direct=3 / weightb=1 / open_gop=0 / weightp=2 / keyint=250 / keyint_min=25 / scenecut=40 / intra_refresh=0 / rc=crf / mbtree=0 / crf=22.2 / qcomp=0.65 / qpmin=0 / qpmax=69 / qpstep=4 / ip_ratio=1.40 / pb_ratio=1.30 / aq=1:0.80
Language : English
Default : Yes
Forced : No
Color primaries : BT.601 PAL
Transfer characteristics : BT.709
Matrix coefficients : BT.601

Audio
ID : 2
Format : AC-3
Format/Info : Audio Coding 3
Mode extension : CM (complete main)
Format settings, Endianness : Big
Codec ID : A_AC3
Duration : 2h 34mn
Bit rate mode : Constant
Bit rate : 256 Kbps
Channel count : 2 channels
Channel positions : Front: L R
Sampling rate : 48.0 KHz
Bit depth : 16 bits
Compression mode : Lossy
Stream size : 283 MiB (9%)
Language : French
Default : Yes
Forced : No

Text
ID : 3
Format : UTF-8
Codec ID : S_TEXT/UTF8
Codec ID/Info : UTF-8 Plain Text
Language : English
Default : Yes
Forced : No

Menu
00:00:00.000 : en:Chapter 1
00:06:26.960 : en:Chapter 2
00:17:32.480 : en:Chapter 3
00:22:57.320 : en:Chapter 4
00:26:27.160 : en:Chapter 5
00:31:56.920 : en:Chapter 6
00:38:42.400 : en:Chapter 7
00:45:49.360 : en:Chapter 8
00:52:20.800 : en:Chapter 9
00:59:20.920 : en:Chapter 10
01:09:35.440 : en:Chapter 11
01:19:37.040 : en:Chapter 12
01:36:31.880 : en:Chapter 13
01:42:18.200 : en:Chapter 14
01:51:40.880 : en:Chapter 15
02:07:55.720 : en:Chapter 16
02:24:31.840 : en:Chapter 17
02:29:08.800 : en:Chapter 18
Tiene buena pinta. ¿Puedes poner capturas?

Gomorrite
 
Mensajes: 29
Registrado: 18 Ago 2013, 12:09

Re: Du côté d'Orouët (Jacques Rozier, 1973) DVDRip VOSE

Mensaje por Gomorrite » 04 Oct 2013, 12:39

Aquí tenéis:

eD2K link Du.cote.d'Orouet.1973.DVDRip.x264-HANDJOB.mkv [3.10 Gb] 

Y ya de paso...

eD2K link Adieu.Philippine.1962.DVDRip.x264-HANDJOB.mkv [1.78 Gb] 

eD2K link Maine-Océan.1986.DVDRip.x264-HANDJOB.mkv [2.53 Gb] 

Gomorrite
 
Mensajes: 29
Registrado: 18 Ago 2013, 12:09

Re: Du côté d'Orouët (Jacques Rozier, 1973) DVDRip VOSE

Mensaje por Gomorrite » 04 Oct 2013, 12:46

OrsonHitchcock escribió:
Gomorrite escribió:Tengo un ripeo de 3GB hecho por mí, si queréis.
Spoiler:
General
Unique ID : 291590341095170154979211400862198576066 (0xDB5E41C6E171209CACA67BB2223AB3C2)
Complete name : Du.cote.d'Orouet.1973.DVDRip.x264-HANDJOB.mkv
Format : Matroska
Format version : Version 4 / Version 2
File size : 3.10 GiB
Duration : 2h 34mn
Overall bit rate : 2 875 Kbps
Encoded date : UTC 2013-09-20 10:39:18
Writing application : mkvmerge v6.2.0 ('Promised Land') built on Apr 28 2013 18:50:30
Writing library : libebml v1.3.0 + libmatroska v1.4.0

Video
ID : 1
Format : AVC
Format/Info : Advanced Video Codec
Format profile : High@L4.0
Format settings, CABAC : Yes
Format settings, ReFrames : 16 frames
Codec ID : V_MPEG4/ISO/AVC
Duration : 2h 34mn
Bit rate : 2 562 Kbps
Width : 718 pixels
Height : 568 pixels
Display aspect ratio : 4:3
Original display aspect ratio : 4:3
Frame rate mode : Constant
Frame rate : 25.000 fps
Color space : YUV
Chroma subsampling : 4:2:0
Bit depth : 8 bits
Scan type : Progressive
Bits/(Pixel*Frame) : 0.251
Stream size : 2.76 GiB (89%)
Writing library : x264 core 130 r2273 b3065e6
Encoding settings : cabac=1 / ref=16 / deblock=1:-3:-3 / analyse=0x3:0x133 / me=umh / subme=11 / psy=1 / psy_rd=1.00:0.15 / mixed_ref=1 / me_range=32 / chroma_me=1 / trellis=2 / 8x8dct=1 / cqm=0 / deadzone=21,11 / fast_pskip=0 / chroma_qp_offset=-3 / threads=6 / lookahead_threads=1 / sliced_threads=0 / nr=0 / decimate=1 / interlaced=0 / bluray_compat=0 / constrained_intra=0 / bframes=16 / b_pyramid=2 / b_adapt=2 / b_bias=0 / direct=3 / weightb=1 / open_gop=0 / weightp=2 / keyint=250 / keyint_min=25 / scenecut=40 / intra_refresh=0 / rc=crf / mbtree=0 / crf=22.2 / qcomp=0.65 / qpmin=0 / qpmax=69 / qpstep=4 / ip_ratio=1.40 / pb_ratio=1.30 / aq=1:0.80
Language : English
Default : Yes
Forced : No
Color primaries : BT.601 PAL
Transfer characteristics : BT.709
Matrix coefficients : BT.601

Audio
ID : 2
Format : AC-3
Format/Info : Audio Coding 3
Mode extension : CM (complete main)
Format settings, Endianness : Big
Codec ID : A_AC3
Duration : 2h 34mn
Bit rate mode : Constant
Bit rate : 256 Kbps
Channel count : 2 channels
Channel positions : Front: L R
Sampling rate : 48.0 KHz
Bit depth : 16 bits
Compression mode : Lossy
Stream size : 283 MiB (9%)
Language : French
Default : Yes
Forced : No

Text
ID : 3
Format : UTF-8
Codec ID : S_TEXT/UTF8
Codec ID/Info : UTF-8 Plain Text
Language : English
Default : Yes
Forced : No

Menu
00:00:00.000 : en:Chapter 1
00:06:26.960 : en:Chapter 2
00:17:32.480 : en:Chapter 3
00:22:57.320 : en:Chapter 4
00:26:27.160 : en:Chapter 5
00:31:56.920 : en:Chapter 6
00:38:42.400 : en:Chapter 7
00:45:49.360 : en:Chapter 8
00:52:20.800 : en:Chapter 9
00:59:20.920 : en:Chapter 10
01:09:35.440 : en:Chapter 11
01:19:37.040 : en:Chapter 12
01:36:31.880 : en:Chapter 13
01:42:18.200 : en:Chapter 14
01:51:40.880 : en:Chapter 15
02:07:55.720 : en:Chapter 16
02:24:31.840 : en:Chapter 17
02:29:08.800 : en:Chapter 18
Tiene buena pinta. ¿Puedes poner capturas?
Spoiler:
Imagen
Imagen
Imagen
Imagen
Imagen
Imagen
Imagen
Imagen
Imagen
Imagen

Avatar de Usuario
Bunker
 
Mensajes: 5225
Registrado: 03 Oct 2012, 00:05
Agradecido : 3 veces
Agradecimiento recibido: 1218 veces

Re: Du côté d'Orouët (Jacques Rozier, 1973) DVDRip VOSE

Mensaje por Bunker » 04 Oct 2013, 12:55

Gomorrite escribió:Aquí tenéis:

eD2K link Du.cote.d'Orouet.1973.DVDRip.x264-HANDJOB.mkv [3.10 Gb] 

Y ya de paso...

eD2K link Adieu.Philippine.1962.DVDRip.x264-HANDJOB.mkv [1.78 Gb] 

eD2K link Maine-Océan.1986.DVDRip.x264-HANDJOB.mkv [2.53 Gb] 
Muchas gracias Gomorrite.

Como veo que, por lo menos, para Adieu.Philippine hay subtítulos. ¿Te parece si abrimos ficha?
Si quieres te echo una mano, solo tienes que mandarme un privado. ;)

Avatar de Usuario
OrsonHitchcock
 
Mensajes: 389
Registrado: 17 Oct 2012, 13:17
Agradecimiento recibido: 28 veces

Re: Du côté d'Orouët (Jacques Rozier, 1973) DVDRip VOSE

Mensaje por OrsonHitchcock » 04 Oct 2013, 13:15

Muchas gracias Gomorrite, pinchando. Y muchas gracias PREACHER y ACCIONISTAS.

Avatar de Usuario
muriel
 
Mensajes: 3172
Registrado: 16 Oct 2012, 19:00
Agradecido : 265 veces
Agradecimiento recibido: 275 veces

Re: Du côté d'Orouët (Jacques Rozier, 1973) DVDRip VOSE

Mensaje por muriel » 04 Oct 2013, 18:15

gomorrite, yo también pincho. :drinks:

por qué no pones alguna capstura. de este rip. :?:

Adieu Philippine, la tengo. Pero no sé si el rip que tu pones es mejor :???:

EStas son unas capturas, del rip que yo tengo, es normal pero está bastante bien.
Imagen Imagen

carácterísticas técnicas
Spoiler:
Matroska
Format version : Version 1
File size : 1.39 GiB
Duration : 1h 45mn
Overall bit rate mode : Variable
Overall bit rate : 1 882 Kbps
Writing application : HandBrake 0.9.3

Video
ID : 1
Format : AVC
Format/Info : Advanced Video Codec
Format profile : High@L4.0
Format settings, CABAC : Yes
Format settings, ReFrames : 5 frames
Codec ID : V_MPEG4/ISO/AVC
Duration : 1h 45mn
Bit rate : 1 683 Kbps
Width : 720 pixels
Height : 432 pixels
Display aspect ratio : 1.667
Frame rate : 25.000 fps
Color space : YUV
Chroma subsampling : 4:2:0
Bit depth : 8 bits
Scan type : Progressive
Bits/(Pixel*Frame) : 0.216
Stream size : 1.22 GiB (88%)
Writing library : x264 core 65
Encoding settings : cabac=1 / ref=5 / deblock=1:-2:-1 / analyse=0x3:0x133 / me=umh / subme=5 / psy_rd=0.0:0.0 / mixed_ref=1 / me_range=24 / chroma_me=1 / trellis=0 / 8x8dct=1 / cqm=0 / deadzone=21,11 / chroma_qp_offset=0 / threads=3 / nr=0 / decimate=1 / mbaff=0 / bframes=6 / b_pyramid=1 / b_adapt=1 / b_bias=0 / direct=3 / wpredb=1 / keyint=250 / keyint_min=25 / scenecut=40(pre) / rc=2pass / bitrate=1683 / ratetol=1.0 / qcomp=0.60 / qpmin=10 / qpmax=51 / qpstep=4 / cplxblur=20.0 / qblur=0.5 / ip_ratio=1.40 / pb_ratio=1.30 / aq=1:1.00
Language : English
Default : Yes
Forced : No
Color primaries : BT.601-6 525, BT.1358 525, BT.1700 NTSC, SMPTE 170M
Transfer characteristics : BT.709-5, BT.1361
Matrix coefficients : BT.601-6 525, BT.1358 525, BT.1700 NTSC, SMPTE 170M

Audio
ID : 2
Format : Vorbis
Format settings, Floor : 1
Codec ID : A_VORBIS
Duration : 1h 45mn
Bit rate mode : Variable
Bit rate : 192 Kbps
Channel(s) : 2 channels
Sampling rate : 48.0 KHz
Compression mode : Lossy
Stream size : 145 MiB (10%)
Writing library : aoTuV Beta 5 (UTC 2006-10-24)
Language : French
Default : Yes
Forced : No
Writing application : HandBrake

Menu
00:00:00.000 : Chapter 1
00:05:18.600 : Chapter 2
00:09:20.160 : Chapter 3
00:13:48.600 : Chapter 4
00:19:12.360 : Chapter 5
00:27:31.800 : Chapter 6
00:37:21.400 : Chapter 7
00:40:50.920 : Chapter 8
00:47:46.720 : Chapter 9
00:55:13.840 : Chapter 10
01:00:32.520 : Chapter 11
01:02:04.920 : Chapter 12
01:08:00.360 : Chapter 13
01:11:41.670 : Chapter 14
01:16:07.230 : Chapter 15
01:23:23.070 : Chapter 16
01:32:07.950 : Chapter 17
01:39:29.310 : Chapter 18
Se nota que me gusta Jacques Rozier. :mrgreen:
Por favor, cuando completéis los archivos mantenedlos al menos 15 días en el incoming. Gracias.
Imagen

Gomorrite
 
Mensajes: 29
Registrado: 18 Ago 2013, 12:09

Re: Du côté d'Orouët (Jacques Rozier, 1973) DVDRip VOSE

Mensaje por Gomorrite » 04 Oct 2013, 18:37

Mejor es, lo que no sé es si suficientemente mejor para justificar la descarga, eso dependerá cada uno. El ripeo que tienes es el de Cinemaggedon, que comparé directamente con el mío cuando lo hice. En tu ripeo el grano está bastante más difuminado, tiene el deblock más intenso y los parámetros de psychovisual completamente desactivados, lo cual me parecen dos malas elecciones.

Ah, y tu ripeo no es anamórfico y el ratio de aspecto está ligeramente modificado.
Spoiler:
General
Unique ID : 232424553008251918228770946867755181307 (0xAEDB573481C1791039AE9C9D330F64FB)
Complete name : Adieu.Philippine.1962.DVDRip.x264-HANDJOB.mkv
Format : Matroska
Format version : Version 4 / Version 2
File size : 1.78 GiB
Duration : 1h 45mn
Overall bit rate : 2 412 Kbps
Encoded date : UTC 2013-08-11 06:29:31
Writing application : mkvmerge v6.2.0 ('Promised Land') built on Apr 28 2013 18:50:30
Writing library : libebml v1.3.0 + libmatroska v1.4.0

Video
ID : 1
Format : AVC
Format/Info : Advanced Video Codec
Format profile : High@L4.0
Format settings, CABAC : Yes
Format settings, ReFrames : 14 frames
Codec ID : V_MPEG4/ISO/AVC
Duration : 1h 45mn
Bit rate : 2 108 Kbps
Width : 656 pixels
Height : 568 pixels
Display aspect ratio : 16:10
Original display aspect ratio : 16:10
Frame rate mode : Constant
Frame rate : 25.000 fps
Color space : YUV
Chroma subsampling : 4:2:0
Bit depth : 8 bits
Scan type : Progressive
Bits/(Pixel*Frame) : 0.226
Stream size : 1.56 GiB (87%)
Writing library : x264 core 130 r2273 b3065e6
Encoding settings : cabac=1 / ref=14 / deblock=1:-3:-3 / analyse=0x3:0x133 / me=umh / subme=11 / psy=1 / psy_rd=1.00:0.10 / mixed_ref=1 / me_range=32 / chroma_me=1 / trellis=2 / 8x8dct=1 / cqm=0 / deadzone=21,11 / fast_pskip=0 / chroma_qp_offset=-3 / threads=6 / lookahead_threads=1 / sliced_threads=0 / nr=0 / decimate=1 / interlaced=0 / bluray_compat=0 / constrained_intra=0 / bframes=16 / b_pyramid=2 / b_adapt=2 / b_bias=0 / direct=3 / weightb=1 / open_gop=0 / weightp=2 / keyint=250 / keyint_min=25 / scenecut=40 / intra_refresh=0 / rc=crf / mbtree=0 / crf=20.8 / qcomp=0.70 / qpmin=0 / qpmax=69 / qpstep=4 / ip_ratio=1.40 / pb_ratio=1.30 / aq=1:0.80
Language : English
Default : Yes
Forced : No
Color primaries : BT.601 PAL
Transfer characteristics : BT.709
Matrix coefficients : BT.601

Audio
ID : 2
Format : AC-3
Format/Info : Audio Coding 3
Mode extension : CM (complete main)
Format settings, Endianness : Big
Codec ID : A_AC3
Duration : 1h 45mn
Bit rate mode : Constant
Bit rate : 256 Kbps
Channel count : 2 channels
Channel positions : Front: L R
Sampling rate : 48.0 KHz
Bit depth : 16 bits
Compression mode : Lossy
Stream size : 193 MiB (11%)
Language : French
Default : Yes
Forced : No

Text
ID : 3
Format : UTF-8
Codec ID : S_TEXT/UTF8
Codec ID/Info : UTF-8 Plain Text
Default : Yes
Forced : No

Menu
00:00:00.000 : en:Plateau téle
00:05:18.560 : en:Plan drague
00:09:20.120 : en:Virée en frégate
00:13:48.560 : en:Déjeuner chez les parents
00:19:12.320 : en:Rencontre du producteur
00:27:31.760 : en:Rendez-vouz
00:37:21.360 : en:Tournage pub
00:40:50.880 : en:Discussion entre filles
00:47:46.680 : en:Boîte de nuit
00:55:13.800 : en:Direct télé
01:00:32.480 : en:Vacances anticipées
01:02:04.880 : en:Arrivée de Liliane et Juliette
01:08:00.320 : en:Camping sauvage
01:11:41.600 : en:Pique-nique à la plage
01:16:07.160 : en:Rencontre avec un italien
01:23:23.000 : en:Roman photo
01:32:07.880 : en:Danse nuptiale
01:39:29.240 : en:Départ pour l'armée
Spoiler:
Imagen
Imagen
Imagen
Imagen
Imagen
También tengo un ripeo de "Les Naufragés de l'île de la Tortue", pero aún no está listo para subir.
Última edición por Gomorrite el 04 Oct 2013, 18:47, editado 1 vez en total.

Avatar de Usuario
muriel
 
Mensajes: 3172
Registrado: 16 Oct 2012, 19:00
Agradecido : 265 veces
Agradecimiento recibido: 275 veces

Re: Du côté d'Orouët (Jacques Rozier, 1973) DVDRip VOSE

Mensaje por muriel » 04 Oct 2013, 18:44

no sé porqué pero las imagenes no las veo. :???: :???:, por lo demás me parece bastante bueno. :up:
Por favor, cuando completéis los archivos mantenedlos al menos 15 días en el incoming. Gracias.
Imagen

Responder

Volver a “Largos Modernos”