All That Jazz (Bob Fosse, 1979) DVDRip VOSE + Aud Esp

Puntuación
7,5/10
2 votos

Empieza el espectáculo

Moderador: Monsieur Lange

Responder
Avatar de Usuario
mifune
 
Mensajes: 6791
Registrado: 02 Oct 2012, 20:48
Ubicación: Welcome to the Jungle
Agradecido : 10233 veces
Agradecimiento recibido: 9718 veces

Estados Unidos All That Jazz (Bob Fosse, 1979) DVDRip VOSE + Aud Esp

Mensaje por mifune » 26 Ago 2013, 14:19

professor keller escribió:
All That Jazz (Bob Fosse, 1979)

Imagen
Wikipedia |IMDb | IMDb Reviews | DVD Beaver

Synopsis: All That Jazz es básicamente la historia del director y coreógrafo Joe Gideon. Cubre los últimos meses de su vida auto-destructiva, en los que el intenta confrontar sus sentimientos (frecuentemente contradictorios, acerca de su trabajo, su familia, el amor, las mujeres y la muerte). Sus pensamientos, recuerdos y fantasías som mostrados a través de escenarios realistas, creando de esta manera una unidad narrativa entre realidad y fantasía. El trasfondo de la película es el negocio del espectáculo.

Synopsis: All that Jazz is basically the story of director/choreographer Joe Gideon. It covers the last months of his rather self-destructive life. It attempts to deal with his feelings (frequently contradictory toward his work, family, love, women and death). These are dealt with through realistic seetings -thoughts, remembrances and fantasies. The background is show business.

Imagen

Dirigida por / Directed by
Bob Fosse

Reparto / Cast
Roy Scheider.....Joe Gideon
Jessica Lange.....Angelique
Ann Reinking.....Kate Jagger
Leland Palmer.....Audrey Paris

Info técnica / Technical info

Código: Seleccionar todo

Video
Format                           : AVC
Format/Info                      : Advanced Video Codec
Format profile                   : High@L4.1
Format settings, CABAC           : Yes
Format settings, ReFrames        : 8 frames
Muxing mode                      : Container profile=Unknown@4.1
Codec ID                         : V_MPEG4/ISO/AVC
Duration                         : 1h 57mn
Bit rate                         : 2 410 Kbps
Nominal bit rate                 : 2 462 Kbps
Width                            : 716 pixels
Height                           : 552 pixels
Display aspect ratio             : 16:9
Frame rate                       : 25.000 fps
Resolution                       : 24 bits
Colorimetry                      : 4:2:0
Scan type                        : Progressive
Bits/(Pixel*Frame)               : 0.244
Stream size                      : 1.98 GiB (91%)
Writing library                  : x264 core 93 r1538 bd72d46

Audio
Format                           : AC-3
Format/Info                      : Audio Coding 3
Codec ID                         : A_AC3
Duration                         : 1h 57mn
Bit rate mode                    : Constant
Bit rate                         : 192 Kbps
Channel(s)                       : 2 channels
Channel positions                : L R
Sampling rate                    : 48.0 KHz
Video delay                      : 20ms
Stream size                      : 162 MiB (7%)
Language                         : English
Capturas (redimensionados para mostrar el AR) / Screen caps (resized to display AR)
ImagenImagenImagenImagen
ImagenImagenImagenImagen
ImagenImagenImagenImagen
ImagenImagenImagenImagen


Ripeo (arriba ) vs. Fuente (abajo)/ Encode (top) vs. Source (bottom):
ImagenImagenImagenImagen
ImagenImagenImagenImagen

eMule
eD2K link all.that.jazz.1979.dvdrip.x264.ac3.2ch.v2-[keller].mkv [2.18 Gb] 

Subs en español* | Spanish subs
Descarga directa / Direct download

* Subtítulos en español revisados y completos (todas las canciones traducidas)
Desde Cine Clásico heinlen aporta el doblaje sincronizado a esta versión
eD2K link All that jazz VE sincro Heinlein (MKV keller).rar [156.00 Mb] 
"Una vez superada la barrera de los subtítulos, descubrirán películas maravillosas” Bong Joon-Ho

Avatar de Usuario
boettcher
 
Mensajes: 1598
Registrado: 17 Oct 2012, 12:01
Agradecido : 978 veces
Agradecimiento recibido: 268 veces

Re: All That Jazz (Bob Fosse, 1979) DVDRip VOSE

Mensaje por boettcher » 26 Ago 2013, 14:46

Por fin unos subtítulos completos de esta hermosa película y un ripeo acorde a su calidad.

Muchas gracias, profesor :)

Avatar de Usuario
eddelon
 
Mensajes: 2181
Registrado: 28 Oct 2012, 01:05
Ubicación: Buenos Aires,Argentina
Agradecido : 2279 veces
Agradecimiento recibido: 392 veces

Re: All That Jazz (Bob Fosse, 1979) DVDRip VOSE

Mensaje por eddelon » 26 Ago 2013, 17:17

Gracias miles Mifune y Professor,gran película de Fosse :up:


:hi:

Avatar de Usuario
professor keller
 
Mensajes: 4654
Registrado: 03 Oct 2012, 10:07
Agradecido : 283 veces
Agradecimiento recibido: 1599 veces

Re: All That Jazz (Bob Fosse, 1979) DVDRip VOSE

Mensaje por professor keller » 26 Ago 2013, 18:36

De nada, gente, gracias a mifune por la resurrección. Tiene años el post, ojalá todavía haya fuentes disponibles.
La pluma en el ojo
Proyecto colectivo de ideas cinéfilas

Avatar de Usuario
Lari
 
Mensajes: 890
Registrado: 03 Oct 2012, 18:52
Ubicación: De viaje, siempre de viaje...
Agradecido : 24 veces
Agradecimiento recibido: 9 veces

Re: All That Jazz (Bob Fosse, 1979) DVDRip VOSE

Mensaje por Lari » 27 Ago 2013, 16:46

Gracias Mifune y Keller :hi:

Avatar de Usuario
janca
 
Mensajes: 2584
Registrado: 16 Oct 2012, 16:39
Agradecido : 8225 veces
Agradecimiento recibido: 133 veces

Re: All That Jazz (Bob Fosse, 1979) DVDRip VOSE

Mensaje por janca » 30 Ago 2013, 06:46

Gracias

Avatar de Usuario
mifune
 
Mensajes: 6791
Registrado: 02 Oct 2012, 20:48
Ubicación: Welcome to the Jungle
Agradecido : 10233 veces
Agradecimiento recibido: 9718 veces

Re: All That Jazz (Bob Fosse, 1979) DVDRip VOSE + Aud Esp

Mensaje por mifune » 31 Ago 2013, 02:15

Doblaje sincronizado aportado por heinlein, muchas gracias compañero.
eD2K link All that jazz VE sincro Heinlein (MKV keller).rar [156.00 Mb] 
"Una vez superada la barrera de los subtítulos, descubrirán películas maravillosas” Bong Joon-Ho

Avatar de Usuario
DMMD
 
Mensajes: 618
Registrado: 16 Oct 2012, 15:35
Agradecido : 558 veces
Agradecimiento recibido: 2903 veces

Re: All That Jazz (Bob Fosse, 1979) DVDRip VOSE + Aud Esp

Mensaje por DMMD » 11 Nov 2013, 00:34

Gracias al profe por el ripeo y a heinlein por el audio

Avatar de Usuario
santiagoo
 
Mensajes: 2192
Registrado: 03 Oct 2012, 21:38
Ubicación: Zaragoza, Spain
Agradecido : 357 veces
Agradecimiento recibido: 2533 veces

Re: All That Jazz (Bob Fosse, 1979) DVDRip VOSE + Aud Esp

Mensaje por santiagoo » 11 Nov 2013, 02:03

Pues yo también me apunto al paquete. Gracias a ambos.
Si repartimos al menos lo que pesa un archivo antes de quitarlo del incoming, nunca habría problemas de fuentes, habría relevos naturales. Las líneas son asimétricas, pero nuestra rutina de subida-bajada no tiene por qué serlo. .

Avatar de Usuario
gatatitania
 
Mensajes: 4811
Registrado: 16 Oct 2012, 18:27
Ubicación: Gatatitania es un gato hambriento, superviviente del planeta gatatitania...
Agradecido : 2534 veces
Agradecimiento recibido: 1490 veces

Re: All That Jazz (Bob Fosse, 1979) DVDRip VOSE + Aud Esp

Mensaje por gatatitania » 17 Nov 2013, 14:37

¡Gracias, Herr Professor, mifune y heinlein! :aplauso: :aplauso: :aplauso:

Responder

Volver a “Largos Modernos”