Flic Story (Jacques Deray, 1975) BDRip 720p Dual SE/Cuatrial

Puntuación
5,5/10
4 votos

Historia de un policía.

Moderador: Monsieur Lange

Responder
Avatar de Usuario
locotus
 
Mensajes: 1117
Registrado: 16 Oct 2012 18:18
Agradecido : 95 veces
Agradecimiento recibido: 6743 veces

Francia Flic Story (Jacques Deray, 1975) BDRip 720p Dual SE/Cuatrial

Mensaje por locotus » 31 Dic 2012 22:07

Índice de Ripeos: -
BDRip 720p Dual SE publicado por locotus
BDRip 720p Cuatrial Multisubs publicado por DCINE

*Nota: Tenga en cuenta la calidad de cada ripeo para hacer la mejor elección. Haga click aquí para más información.
Imagen
BRRip dual Francés-Español con subtitulos en Inglés y Español dentro del contenedor MKV.
http://www.imdb.com/title/tt0072996/
Director: Jacques Deray
Writing credits: Roger Borniche autobiography
Alphonse Boudard
Jacques Deray
Reparto:
Alain Delon ... Roger Borniche
Jean-Louis Trintignant..Emile Buisson
Renato Salvatori... Mario Poncini
Claudine Auger ... Catherine
Maurice Biraud ... Le patron de l'hôtel Saint-Appoline
André Pousse ... Jean-Baptiste Buisson
Mario David ... Raymond Pelletier
Paul Crauchet ... Paul Robier
Denis Manuel ... L'inspecteur Lucien Darros
Marco Perrin ... Vieuchene
Henri Guybet ... Hidoine
Maurice Barrier ... Rene Bollec
Françoise Dorner... Suzanne Bollec
William Sabatier... Ange
Adolfo Lastretti... Jeannot, le niçois
Frédérique Meininger... Mado
Giampiero Albertini... Marcel
Catherine Lachens... Jenny
Lionel Vitrant ... Le gendarme
Christine Boisson... Jocelyne
Rossana Di Lorenzo... Marie
Jacques Marin ... Le patron de l'auberge à Saint-Rémy
Annick Berger ... La patronne de l'auberge

Runtime: Germany: 107 min | France: 112 min | USA: 112 min
Sound Mix: Mono
Color: Color (Eastmancolor)
Aspect Ratio: 1.66 : 1

Sinopsis:
Tomada de: http://wwwunmundoperfecto.blogspot.com/ ... deray.html

Código: Seleccionar todo

Este policial negro está basado en una historia real, la del primer Enemigo Público Nº 1 que tuvo la Francia de posguerra, el ladrón y asesino Emile Buisson (interpretado por un magnífico Jean Lois Trintignant), quien fuera capturado, después de años de busqueda, por el policia Roger Borniche (Alain Delon), quien luego escribiría la historia de manera autobiográfica.

Cinematográficamente se trata de un robusto policial repleto de acción y estilo, buena muestra de la manera de hacer francesa, siempre un tanto gélida y distanciada, lacónica y carismática. El artesano Deray (responsable de films como "La Piscina", "Borsalino" o "El derecho a matar) narra en formá clásica y pone su firmeza al servicio de los divos protagonistas, que aquí se intercambian sus papeles/arquetipos, siendo Delon el recto policia insobornable y el "prestigioso" Trintignant (en una interpretación memorable relizada con un estilo impenetrable y gustosamente sádico) el duro gangster. Basicamente "caza del hombre" y enfrentamiento en la cumbre entre dos profesionales dispuestos a cumplir su cometido (parangonados con inteligencia durante todo el desarrollo), muy bien ambientado, acertadamente trepidante y competentemente narrado.
Capturas:

ImagenImagenImagenImagenImagen

ImagenImagenImagenImagenImagen

Info:

Código: Seleccionar todo

General
Unique ID                                : 208632157826140463285118676586490125907 (0x9CF5178E1856D0AE98E80B6ADE9A5E53)
Complete name                            : Flic Story (1975) BRRip.Dual.mkv
Format                                   : Matroska
Format version                           : Version 2
File size                                : 4.07 GiB
Duration                                 : 1h 51mn
Overall bit rate                         : 5 215 Kbps
Encoded date                             : UTC 2012-06-26 04:50:24
Writing application                      : mkvmerge v5.6.0 ('Kenya Kane') built on May 27 2012 16:44:04
Writing library                          : libebml v1.2.3 + libmatroska v1.3.0

Video
ID                                       : 1
Format                                   : AVC
Format/Info                              : Advanced Video Codec
Format profile                           : High@L4.1
Format settings, CABAC                   : Yes
Format settings, ReFrames                : 8 frames
Codec ID                                 : V_MPEG4/ISO/AVC
Duration                                 : 1h 51mn
Bit rate                                 : 4 829 Kbps
Width                                    : 1 200 pixels
Height                                   : 720 pixels
Display aspect ratio                     : 1.667
Frame rate mode                          : Constant
Frame rate                               : 23.976 fps
Color space                              : YUV
Chroma subsampling                       : 4:2:0
Bit depth                                : 8 bits
Scan type                                : Progressive
Bits/(Pixel*Frame)                       : 0.233
Stream size                              : 3.69 GiB (91%)
Writing library                          : x264 core 125 r2200 999b753
Encoding settings                        : cabac=1 / ref=8 / deblock=1:-1:-1 / analyse=0x3:0x133 / me=umh / subme=10 / psy=1 / psy_rd=1.00:0.00 / mixed_ref=1 / me_range=32 / chroma_me=1 / trellis=2 / 8x8dct=1 / cqm=0 / deadzone=21,11 / fast_pskip=1 / chroma_qp_offset=-2 / threads=12 / lookahead_threads=2 / sliced_threads=0 / nr=0 / decimate=1 / interlaced=0 / bluray_compat=0 / constrained_intra=0 / bframes=5 / b_pyramid=2 / b_adapt=2 / b_bias=0 / direct=3 / weightb=1 / open_gop=0 / weightp=2 / keyint=240 / keyint_min=23 / scenecut=60 / intra_refresh=0 / rc_lookahead=60 / rc=2pass / mbtree=1 / bitrate=4829 / ratetol=1.0 / qcomp=0.60 / qpmin=0 / qpmax=69 / qpstep=4 / cplxblur=20.0 / qblur=0.5 / vbv_maxrate=40000 / vbv_bufsize=40000 / nal_hrd=none / ip_ratio=1.40 / aq=1:1.00
Default                                  : Yes
Forced                                   : No

Audio #1
ID                                       : 2
Format                                   : AC-3
Format/Info                              : Audio Coding 3
Mode extension                           : CM (complete main)
Format settings, Endianness              : Big
Codec ID                                 : A_AC3
Duration                                 : 1h 51mn
Bit rate mode                            : Constant
Bit rate                                 : 192 Kbps
Channel(s)                               : 2 channels
Channel positions                        : Front: L R
Sampling rate                            : 48.0 KHz
Bit depth                                : 16 bits
Compression mode                         : Lossy
Stream size                              : 154 MiB (4%)
Language                                 : French
Default                                  : Yes
Forced                                   : No

Audio #2
ID                                       : 3
Format                                   : AC-3
Format/Info                              : Audio Coding 3
Mode extension                           : CM (complete main)
Format settings, Endianness              : Big
Codec ID                                 : A_AC3
Duration                                 : 1h 51mn
Bit rate mode                            : Constant
Bit rate                                 : 192 Kbps
Channel(s)                               : 2 channels
Channel positions                        : Front: L R
Sampling rate                            : 48.0 KHz
Bit depth                                : 16 bits
Compression mode                         : Lossy
Stream size                              : 154 MiB (4%)
Language                                 : Spanish
Default                                  : No
Forced                                   : No

Text #1
ID                                       : 4
Format                                   : UTF-8
Codec ID                                 : S_TEXT/UTF8
Codec ID/Info                            : UTF-8 Plain Text
Language                                 : English
Default                                  : No
Forced                                   : No

Text #2
ID                                       : 5
Format                                   : UTF-8
Codec ID                                 : S_TEXT/UTF8
Codec ID/Info                            : UTF-8 Plain Text
Language                                 : Spanish
Default                                  : No
Forced                                   : No

Elink:

eD2K link Flic Story (1975) BRRip.Dual.mkv [4.07 Gb] 
“Si no lees los periódicos estás desinformado”.
Y si los lees estás mal informado”.
Denzel Washington.

Avatar de Usuario
eddelon
 
Mensajes: 2378
Registrado: 28 Oct 2012 01:05
Ubicación: Buenos Aires,Argentina
Agradecido : 2352 veces
Agradecimiento recibido: 440 veces

Re: Flic Story (Jacques Deray, 1975) BDRip 720p Dual SE

Mensaje por eddelon » 31 Dic 2012 22:14

Mil gracias Locotus,otro clasicazo francés de la mejor estirpe y con una calidad envidiable :genial:


:hi:

ciberyago
 
Mensajes: 2858
Registrado: 20 Oct 2012 07:26
Agradecido : 1 vez
Agradecimiento recibido: 573 veces

Re: Flic Story (Jacques Deray, 1975) BDRip 720p Dual SE

Mensaje por ciberyago » 01 Ene 2013 12:18

Buenísimo, Locotus!
Muchas gracias

anbl2
 
Mensajes: 153
Registrado: 18 Oct 2012 11:37
Agradecido : 2310 veces
Agradecimiento recibido: 9 veces

Re: Flic Story (Jacques Deray, 1975) BDRip 720p Dual SE

Mensaje por anbl2 » 01 Ene 2013 14:54

Muchas gracias locotus.

Avatar de Usuario
lluis600
 
Mensajes: 951
Registrado: 16 Oct 2012 19:39
Agradecido : 1790 veces
Agradecimiento recibido: 23 veces

Re: Flic Story (Jacques Deray, 1975) BDRip 720p Dual SE

Mensaje por lluis600 » 01 Ene 2013 20:12

Gracias por la aportación, locotus y Feliz Año :genial:

Avatar de Usuario
DCINE
 
Mensajes: 1913
Registrado: 30 Jul 2016 20:09
Agradecido : 797 veces
Agradecimiento recibido: 4638 veces

Francia Flic Story (Jacques Deray, 1975) BDRip 720p Cuatrial SE-Fre-I-Ger

Mensaje por DCINE » 26 Nov 2022 07:55

Hilo anterior
Flic Story
1975

Imagen


AKA: Historia de un policía/Duell in sechs Runden (Der Bulle und der Killer)

DIRECTOR: Jacques Deray
PRODUCTORA: Coproducción Francia-Italia; Adel Productions, Lira Films, Mondial Televisione Film
GUIÓN: Jacques Deray, Alphonse Boudard. Autobiografía: Roger Borniche
MÚSICA: Claude Bolling
FOTOGRAFÍA: Jean-Jacques Tarbes

ImagenImagen


ARGUMENTO Roger Borniche (Alain Delon) es un policía distinto a los demás: no lleva armas e incluso los gángsters le escriben para agradecerle su humanidad. Emile Buisson es, en cambio, un criminal que no duda en matar a sus propios cómplices. Los dos acabarán enfrentándose en un fantástico duelo. (FILMAFFINITY IMDB: https://www.imdb.com/title/tt0072996/




Reparto: Alain Delon, Jean-Louis Trintignant, Renato Salvatori, Claudine Auger, Maurice Biraud, André Pousse, Mario David, Paul Crauchet




Datos técnicos

Video: Ripeo de MySiLU procedente de karagarga

Audios:

V.O. (¿Francés o italiano?): Audio francés en AC-3 y corrigiéndole el tono. Audio italiano de un ripeo del emule

Doblajes:

Español: Dos audios

El de su estreno en cines de 1976. Del VHS editado por CIVSA en 1983, digitalizado por DannyKayeFDob

El del DVD realizado en 2010. De un ripeo del emule

Alemán: El de su estreno en cines de 1975. De un ripeo del emule




Subtítulos:
En español, francés, inglés y alemán


Código: Seleccionar todo

General:
Complete name                    : 1975 Flic Story (Historia de un policía) (J. Deray) BDRip 720p (Spa (Doblaje Cines 1976 - DVD 2010)-Fre-Ita-Ger) SE-Fre-I-Ger by MySiLU-DCINE.mkv
Format                           : Matroska
Format version                   : Version 4 / Version 2
File size                        : 4.51 GiB
Duration                         : 1h 51mn
Overall bit rate                 : 5 777 Kbps
Movie name                       : 1975 Flic Story (Historia de un policía)/Flic Story/Duell in sechs Runden (Der Bulle und der Killer) (Jacques Deray, 1975) BDRip 720p (Spa (Doblaje Cines 1976/Doblaje DVD 2010)-Fre-Ita (Doppiaggio originale 1975)-Ger (Syncronisation von 1975)) SE-Fre-I-Ger by MySiLU-DCINE.mkv
Encoded date                     : UTC 2022-07-27 15:10:29
Writing application              : mkvmerge v7.1.0 ('Good Love') 32bit built on Jul 27 2014 12:59:18
Writing library                  : libebml v1.3.0 + libmatroska v1.4.1
DURATION                         : 01:49:24.148000000
NUMBER_OF_FRAMES                 : 1013
NUMBER_OF_BYTES                  : 28688
_STATISTICS_WRITING_APP          : mkvmerge v7.1.0 ('Good Love') 32bit built on Jul 27 2014 12:59:18
_STATISTICS_WRITING_DATE_UTC     : 2022-07-27 15:10:29
_STATISTICS_TAGS                 : BPS DURATION NUMBER_OF_FRAMES NUMBER_OF_BYTES

Video
ID                               : 1
Format                           : AVC
Format/Info                      : Advanced Video Codec
Format profile                   : High@L4.1
Format settings, CABAC           : Yes
Format settings, ReFrames        : 8 frames
Codec ID                         : V_MPEG4/ISO/AVC
Duration                         : 1h 51mn
Bit rate                         : 4 829 Kbps
Width                            : 1 200 pixels
Height                           : 720 pixels
Display aspect ratio             : 1.667
Frame rate                       : 23.976 fps
Color space                      : YUV
Chroma subsampling               : 4:2:0
Bit depth                        : 8 bits
Scan type                        : Progressive
Bits/(Pixel*Frame)               : 0.233
Stream size                      : 3.67 GiB (81%)
Writing library                  : x264 core 125 r2200 999b753
Encoding settings                : cabac=1 / ref=8 / deblock=1:-1:-1 / analyse=0x3:0x133 / me=umh / subme=10 / psy=1 / psy_rd=1.00:0.00 / mixed_ref=1 / me_range=32 / chroma_me=1 / trellis=2 / 8x8dct=1 / cqm=0 / deadzone=21,11 / fast_pskip=1 / chroma_qp_offset=-2 / threads=12 / lookahead_threads=2 / sliced_threads=0 / nr=0 / decimate=1 / interlaced=0 / bluray_compat=0 / constrained_intra=0 / bframes=5 / b_pyramid=2 / b_adapt=2 / b_bias=0 / direct=3 / weightb=1 / open_gop=0 / weightp=2 / keyint=240 / keyint_min=23 / scenecut=60 / intra_refresh=0 / rc_lookahead=60 / rc=2pass / mbtree=1 / bitrate=4829 / ratetol=1.0 / qcomp=0.60 / qpmin=0 / qpmax=69 / qpstep=4 / cplxblur=20.0 / qblur=0.5 / vbv_maxrate=40000 / vbv_bufsize=40000 / nal_hrd=none / ip_ratio=1.40 / aq=1:1.00
Default                          : Yes
Forced                           : No

Audio #1
ID                               : 2
Format                           : AC-3
Format/Info                      : Audio Coding 3
Mode extension                   : CM (complete main)
Codec ID                         : A_AC3
Duration                         : 1h 51mn
Bit rate mode                    : Constant
Bit rate                         : 192 Kbps
Channel(s)                       : 1 channel
Channel positions                : Front: C
Sampling rate                    : 48.0 KHz
Bit depth                        : 16 bits
Compression mode                 : Lossy
Stream size                      : 154 MiB (3%)
Title                            : Doblaje Cines 1976  (by DannyKayeFDob-DCINE) (Sync by DCINE)
Language                         : Spanish
Default                          : Yes
Forced                           : Yes

Audio #2
ID                               : 3
Format                           : AC-3
Format/Info                      : Audio Coding 3
Mode extension                   : CM (complete main)
Codec ID                         : A_AC3
Duration                         : 1h 51mn
Bit rate mode                    : Constant
Bit rate                         : 192 Kbps
Channel(s)                       : 1 channel
Channel positions                : Front: C
Sampling rate                    : 48.0 KHz
Bit depth                        : 16 bits
Compression mode                 : Lossy
Stream size                      : 154 MiB (3%)
Title                            : Doblaje DVD 2010
Language                         : Spanish
Default                          : No
Forced                           : No

Audio #3
ID                               : 4
Format                           : AC-3
Format/Info                      : Audio Coding 3
Mode extension                   : CM (complete main)
Codec ID                         : A_AC3
Duration                         : 1h 51mn
Bit rate mode                    : Constant
Bit rate                         : 192 Kbps
Channel(s)                       : 1 channel
Channel positions                : Front: C
Sampling rate                    : 48.0 KHz
Bit depth                        : 16 bits
Compression mode                 : Lossy
Stream size                      : 154 MiB (3%)
Language                         : French
Default                          : No
Forced                           : No

Audio #4
ID                               : 5
Format                           : AC-3
Format/Info                      : Audio Coding 3
Mode extension                   : CM (complete main)
Codec ID                         : A_AC3
Duration                         : 1h 51mn
Bit rate mode                    : Constant
Bit rate                         : 192 Kbps
Channel(s)                       : 1 channel
Channel positions                : Front: C
Sampling rate                    : 48.0 KHz
Bit depth                        : 16 bits
Compression mode                 : Lossy
Stream size                      : 154 MiB (3%)
Title                            : Doppiaggio originale 1975
Language                         : Italian
Default                          : No
Forced                           : No

Audio #5
ID                               : 6
Format                           : AC-3
Format/Info                      : Audio Coding 3
Mode extension                   : CM (complete main)
Codec ID                         : A_AC3
Duration                         : 1h 51mn
Bit rate mode                    : Constant
Bit rate                         : 192 Kbps
Channel(s)                       : 1 channel
Channel positions                : Front: C
Sampling rate                    : 48.0 KHz
Bit depth                        : 16 bits
Compression mode                 : Lossy
Stream size                      : 154 MiB (3%)
Title                            : Syncronisation von 1975
Language                         : German
Default                          : No
Forced                           : No

Text #1
ID                               : 7
Format                           : UTF-8
Codec ID                         : S_TEXT/UTF8
Codec ID/Info                    : UTF-8 Plain Text
Language                         : Spanish
Default                          : No
Forced                           : No

Text #2
ID                               : 8
Format                           : UTF-8
Codec ID                         : S_TEXT/UTF8
Codec ID/Info                    : UTF-8 Plain Text
Language                         : French
Default                          : No
Forced                           : No

Text #3
ID                               : 9
Format                           : UTF-8
Codec ID                         : S_TEXT/UTF8
Codec ID/Info                    : UTF-8 Plain Text
Language                         : English
Default                          : No
Forced                           : No

Text #4
ID                               : 10
Format                           : UTF-8
Codec ID                         : S_TEXT/UTF8
Codec ID/Info                    : UTF-8 Plain Text
Language                         : German
Default                          : No
Forced                           : No

Text #5
ID                               : 11
Format                           : UTF-8
Codec ID                         : S_TEXT/UTF8
Codec ID/Info                    : UTF-8 Plain Text
Title                            : SDH
Language                         : German
Default                          : No
Forced                           : No

Menu
00:00:00.000                     : :00:00:00.000
00:07:52.055                     : :00:07:52.055
00:18:32.320                     : :00:18:32.320
00:27:48.625                     : :00:27:48.625
00:36:20.470                     : :00:36:20.470
00:46:26.575                     : :00:46:26.575
00:55:55.936                     : :00:55:55.936
01:06:00.540                     : :01:06:00.540
01:13:40.333                     : :01:13:40.333
01:23:15.532                     : :01:23:15.532
01:32:12.485                     : :01:32:12.485
01:39:50.234                     : :01:39:50.234


Capturas:

Imagen Imagen
Imagen Imagen
Imagen Imagen
Imagen Imagen
Imagen Imagen



Enlace:
eD2K link 1975 Flic Story (Historia de un policía) (J. Deray) BDRip 720p (Spa (Doblaje Cin...MySiLU-DCINE.mkv [4.51 Gb] 


kiffer
 
Mensajes: 33
Registrado: 14 Jul 2022 09:39
Agradecimiento recibido: 22 veces

Re: Flic Story (Jacques Deray, 1975) BDRip 720p Cuatrial SE-Fre-I-Ger

Mensaje por kiffer » 26 Nov 2022 08:40

Muchas gracias.

Avatar de Usuario
yojimbo
 
Mensajes: 12685
Registrado: 18 Oct 2012 14:25
Agradecido : 12441 veces
Agradecimiento recibido: 3639 veces

Re: Flic Story (Jacques Deray, 1975) BDRip 720p Cuatrial SE-Fre-I-Ger

Mensaje por yojimbo » 26 Nov 2022 14:18

Muchas gracias, DCINE.

Avatar de Usuario
Monsieur Lange
 
Mensajes: 6528
Registrado: 13 Sep 2012 19:39
Ubicación: Cruzando las dunas
Agradecido : 3337 veces
Agradecimiento recibido: 3046 veces

Re: Flic Story (Jacques Deray, 1975) BDRip 720p Cuatrial SE-Fre-I-Ger

Mensaje por Monsieur Lange » 26 Nov 2022 23:30

Muchas gracias DCINE. Tiene muy buena pinta, así que me apunto.
"Esos chicos …/… hablando de los años veinte a veinticinco, revolviendo unos con otros como si todos fuesen unos .../… como si hubieran sido todos de la misma tertulia"
Max Aub: La gallina ciega

Avatar de Usuario
tonapar1
 
Mensajes: 6747
Registrado: 16 Oct 2012 20:19
Agradecido : 1401 veces
Agradecimiento recibido: 2452 veces

Re: Flic Story (Jacques Deray, 1975) BDRip 720p Cuatrial SE-Fre-I-Ger

Mensaje por tonapar1 » 27 Nov 2022 07:29

Muchas gracias por el ripeo y los subs a dcine, MySiLU y DannyKayeFDob. Un saludo a todos ellos. Un excelente trabajo, como todos los tuyos.

Responder

Volver a “Largos Modernos”