Adieu L'Ami (Jean Herman, 1968) DVDRip Dual SE

Puntuación
5/10
2 votos

Adios, amigo.

Moderador: Monsieur Lange

Responder
Avatar de Usuario
locotus
 
Mensajes: 877
Registrado: 16 Oct 2012, 18:18
Agradecido : 42 veces
Agradecimiento recibido: 5546 veces

Francia Adieu L'Ami (Jean Herman, 1968) DVDRip Dual SE

Mensaje por locotus » 30 Dic 2012, 05:16

Imagen
DVDRip dual Francés-Español con subtitulos en ingles
y español dentro del contenedor MKV.
http://www.imdb.com/title/tt0062639/
Director: Jean Herman
Writing credits: Jean Herman screenplay
Sébastien Japrisot dialogue+screenplay+story
Reparto:
Alain Delon ... Dino Barran
Charles Bronson ... Franz Propp
Olga Georges-Picot... Isabelle Moreau
Brigitte Fossey ... Dominique 'Waterloo' Austerlitz
Bernard Fresson ... Insp. Antoine Méloutis
Marianna Falk ... Catherine
Ellen Bahl ... Martha
Jean-Claude Ballard... A police inspector
Michel Barcet ... Insp. Muratti
Antoine Baud
Stéphane Bouy ... Man from Neuilly
Béatrice Costantini... Young patient (as Béatrice Constantini)
Guy Delorme ... Man from Neuilly
André Dumas ... Personnel director
Steve Eckardt ... Big man (as Steve Eckhardt)
Marie-Noëlle Gresset
Raoul Guylad ... Insp. Gorik
Lisette Lebon ... Gilberte
Sylvain Levignac... A passerby at Saint Lazare
Jacques Marbeuf ... Parachutist
Claude Salez ... Parachutist
Sandrine Schmidt
Gilbert Servien ... A police inspector
Catherine Sola ... Nurse
Jean-Paul Tribout... A police inspector

Runtime: 115 min
Sound Mix: Mono
Color: Color (Eastmancolor)
Aspect Ratio: 1.66 : 1

Sinopsis:
Después de servir juntos en la legión durante el conflicto de Argelia, un médico (Alain Delon) y un mercenario (Charles Bronson) regresan a Marsella donde siguen caminos separados. El médico llega a un acuerdo con una misteriosa joven para devolver a la caja fuerte de su empresa, unos títulos que ella sustrajo tiempo atrás. Ponen en marcha un meticuloso plan en cuya fase final, él se quedará encerrado en la planta baja del edificio; burlará las medidas de seguridad; devolverá los títulos y huirá cuando se abran las puertas durante una ronda de vigilancia. Antes, para no levantar sospechas, se habrá encargado de la revisión médica del personal. Llega el momento señalado pero, de pronto, hace su aparición el mercenario, quedándose encerrado en el edificio junto al doctor... (FILMAFFINITY)

Capturas:
ImagenImagenImagenImagenImagen

ImagenImagenImagenImagenImagen

Info:

Código: Seleccionar todo

General
Unique ID                                : 190662138370251623510749092055919735105 (0x8F7031310EDEDC0EA6252CB874C1B141)
Complete name                            : Adieu L'Ami (1968) DVDRip.Dual.mkv
Format                                   : Matroska
Format version                           : Version 4 / Version 2
File size                                : 2.00 GiB
Duration                                 : 1h 50mn
Overall bit rate                         : 2 581 Kbps
Encoded date                             : UTC 2010-02-22 21:41:31
Writing application                      : mkvmerge v5.9.0 ('On The Loose') built on Dec  9 2012 15:37:01
Writing library                          : libebml v1.3.0 + libmatroska v1.4.0

Video
ID                                       : 1
Format                                   : AVC
Format/Info                              : Advanced Video Codec
Format profile                           : High@L4.1
Format settings, CABAC                   : Yes
Format settings, ReFrames                : 4 frames
Muxing mode                              : Header stripping
Codec ID                                 : V_MPEG4/ISO/AVC
Duration                                 : 1h 50mn
Bit rate                                 : 2 195 Kbps
Width                                    : 720 pixels
Height                                   : 432 pixels
Display aspect ratio                     : 1.667
Frame rate mode                          : Constant
Frame rate                               : 25.000 fps
Color space                              : YUV
Chroma subsampling                       : 4:2:0
Bit depth                                : 8 bits
Scan type                                : Progressive
Bits/(Pixel*Frame)                       : 0.282
Stream size                              : 1.66 GiB (83%)
Writing library                          : x264 core 129 r2230 1cffe9f
Encoding settings                        : cabac=1 / ref=3 / deblock=1:-1:-1 / analyse=0x3:0x113 / me=hex / subme=7 / psy=1 / psy_rd=1.00:0.15 / mixed_ref=1 / me_range=16 / chroma_me=1 / trellis=2 / 8x8dct=1 / cqm=0 / deadzone=21,11 / fast_pskip=1 / chroma_qp_offset=-3 / threads=6 / lookahead_threads=1 / sliced_threads=0 / nr=0 / decimate=1 / interlaced=0 / bluray_compat=0 / constrained_intra=0 / bframes=5 / b_pyramid=2 / b_adapt=2 / b_bias=0 / direct=1 / weightb=1 / open_gop=0 / weightp=2 / keyint=250 / keyint_min=25 / scenecut=40 / intra_refresh=0 / rc_lookahead=40 / rc=2pass / mbtree=1 / bitrate=2195 / ratetol=1.0 / qcomp=0.60 / qpmin=0 / qpmax=69 / qpstep=4 / cplxblur=20.0 / qblur=0.5 / ip_ratio=1.40 / aq=1:1.00
Default                                  : Yes
Forced                                   : No

Audio #1
ID                                       : 2
Format                                   : AC-3
Format/Info                              : Audio Coding 3
Mode extension                           : CM (complete main)
Format settings, Endianness              : Big
Muxing mode                              : Header stripping
Codec ID                                 : A_AC3
Duration                                 : 1h 50mn
Bit rate mode                            : Constant
Bit rate                                 : 192 Kbps
Channel(s)                               : 2 channels
Channel positions                        : Front: L R
Sampling rate                            : 48.0 KHz
Bit depth                                : 16 bits
Compression mode                         : Lossy
Stream size                              : 152 MiB (7%)
Language                                 : French
Default                                  : Yes
Forced                                   : No

Audio #2
ID                                       : 3
Format                                   : AC-3
Format/Info                              : Audio Coding 3
Mode extension                           : CM (complete main)
Format settings, Endianness              : Big
Muxing mode                              : Header stripping
Codec ID                                 : A_AC3
Duration                                 : 1h 50mn
Bit rate mode                            : Constant
Bit rate                                 : 192 Kbps
Channel(s)                               : 2 channels
Channel positions                        : Front: L R
Sampling rate                            : 48.0 KHz
Bit depth                                : 16 bits
Compression mode                         : Lossy
Stream size                              : 152 MiB (7%)
Language                                 : Spanish
Default                                  : No
Forced                                   : No

Text #1
ID                                       : 4
Format                                   : VobSub
Muxing mode                              : zlib
Codec ID                                 : S_VOBSUB
Codec ID/Info                            : The same subtitle format used on DVDs
Language                                 : English
Default                                  : No
Forced                                   : No

Text #2
ID                                       : 5
Format                                   : UTF-8
Codec ID                                 : S_TEXT/UTF8
Codec ID/Info                            : UTF-8 Plain Text
Language                                 : Spanish
Default                                  : No
Forced                                   : No
Elink:
eD2K link Adieu L'Ami (1968) DVDRip.Dual.mkv [2.00 Gb] 
“Si no lees los periódicos estás desinformado”.
Y si los lees estás mal informado”.
Denzel Washington.

Avatar de Usuario
janca
 
Mensajes: 2552
Registrado: 16 Oct 2012, 16:39
Agradecido : 6107 veces
Agradecimiento recibido: 100 veces

Re: Adieu L'Ami (Jean Herman, 1968) DVDRip Dual SE

Mensaje por janca » 30 Dic 2012, 09:03

Renovando copia. Gracias Locotus

Avatar de Usuario
lluis600
 
Mensajes: 944
Registrado: 16 Oct 2012, 19:39
Agradecido : 1090 veces
Agradecimiento recibido: 17 veces

Re: Adieu L'Ami (Jean Herman, 1968) DVDRip Dual SE

Mensaje por lluis600 » 30 Dic 2012, 19:30

Gracias por la aportación, locotus :genial:

Avatar de Usuario
eddelon
 
Mensajes: 2022
Registrado: 28 Oct 2012, 01:05
Ubicación: Buenos Aires,Argentina
Agradecido : 2073 veces
Agradecimiento recibido: 291 veces

Re: Adieu L'Ami (Jean Herman, 1968) DVDRip Dual SE

Mensaje por eddelon » 30 Dic 2012, 23:04

Merci Locotus por otro clásico con Delon :aplauso: :aplauso:

:hi:

Avatar de Usuario
DCINE
 
Mensajes: 1331
Registrado: 30 Jul 2016, 20:09
Agradecido : 828 veces
Agradecimiento recibido: 2225 veces

Re: Adieu L'Ami (Jean Herman, 1968) DVDRip Dual SE

Mensaje por DCINE » 27 Dic 2017, 12:56

¿Doblaje clásico o redoblaje?

Avatar de Usuario
janca
 
Mensajes: 2552
Registrado: 16 Oct 2012, 16:39
Agradecido : 6107 veces
Agradecimiento recibido: 100 veces

Re: Adieu L'Ami (Jean Herman, 1968) DVDRip Dual SE

Mensaje por janca » 27 Dic 2017, 13:21

Clasico, con José Guardiola de Charles Bronson

jail
 
Mensajes: 4842
Registrado: 18 Oct 2012, 15:34
Agradecido : 5348 veces
Agradecimiento recibido: 1214 veces

Re: Adieu L'Ami (Jean Herman, 1968) DVDRip Dual SE

Mensaje por jail » 27 Dic 2017, 13:28

Gracias, locotus.

Avatar de Usuario
sete
 
Mensajes: 2995
Registrado: 22 Dic 2012, 16:10
Agradecido : 36 veces
Agradecimiento recibido: 614 veces

Re: Adieu L'Ami (Jean Herman, 1968) DVDRip Dual SE

Mensaje por sete » 27 Dic 2017, 22:58

Muchas gracias, locotus.
:hi:
Este mundo está traicionando a la vida.
José Luis Sampedro

Responder

Volver a “Largos Modernos”