Satsujin Kyo Jidai (Kihachi Okamoto, 1967) DVDRip VOSE

Puntuación
5/10
2 votos

The Age of Assassins

Moderador: Monsieur Lange

Responder
Avatar de Usuario
professor keller
 
Mensajes: 4651
Registrado: 03 Oct 2012, 10:07
Agradecido : 276 veces
Agradecimiento recibido: 1587 veces

Japón Satsujin Kyo Jidai (Kihachi Okamoto, 1967) DVDRip VOSE

Mensaje por professor keller » 16 Oct 2012, 13:27

Satsujin Kyo Jidai / The Age of Assassins (Kihachi Okamoto, 1967)

Imagen
Dirigida por
Kihachi Okamoto

Escrita por
Ei Ogawa, Kihachi Okamoto, Michio Tsuzuki, and Tadashi Yamazaki

Reparto
Tatsuya Nakadai, Reiko Dan, Hideo Sunazuka, Eisei Amamoto, Keiichi Taki

IMDb

Reviews: Eros Plus Massacre | Cinema Talk
Trailer: http://www.youtube.com/watch?v=Se_w0DXKrd4

Synopsis: A darkly comic spy movie spoof, complete with extraordinary gadgets, femme fatales (Reiko Dan) and supervillains. The film follows Shinji Kikyo (Tatsuya Nakadai), a humble criminal psychology teacher who has in his possession a large diamond originally stolen by the Nazis. Mizorogi (Eisei Amamoto), an ex-Nazi mad scientist who trains patients in his lunatic asylum as assassins, finds out about the diamond and sends his men to hunt down Shinji so he can have the diamond all for himself. Yet Shinji proves to be more than able to defend himself against these professional killers, leading Mizorogi to believe that Shinji is not just a humble teacher after all. Nakadai's nerdy, aloof, and deadpan teacher works brilliantly in contrast to all the bizarre assassination attempts he and his goofy friend Automo Bill (Hideo Sunazuka) find themselves in. Scenes such as their escape from an artillery target site during a shooting practice blend together clever parody and pure slapstick in ways that only Okamoto could achieve.

Info

Código: Seleccionar todo

Video
Format                           : MPEG-4 Visual
Format profile                   : AdvancedSimple@L5
Format settings, BVOP            : No
Format settings, QPel            : No
Format settings, GMC             : No warppoints
Format settings, Matrix          : Default (MPEG)
Codec ID                         : XVID
Codec ID/Hint                    : XviD
Duration                         : 1h 39mn
Bit rate                         : 1 902 Kbps
Width                            : 720 pixels
Height                           : 304 pixels
Display aspect ratio             : 2.35:1
Frame rate                       : 23.976 fps
Resolution                       : 24 bits
Colorimetry                      : 4:2:0
Scan type                        : Progressive
Bits/(Pixel*Frame)               : 0.362
Stream size                      : 1.32 GiB (90%)
Writing library                  : XviD 1.2.1 (UTC 2008-12-04)

Audio
Format                           : AC-3
Format/Info                      : Audio Coding 3
Codec ID                         : 2000
Duration                         : 1h 39mn
Bit rate mode                    : Constant
Bit rate                         : 192 Kbps
Channel(s)                       : 1 channel
Channel positions                : C
Sampling rate                    : 48.0 KHz
Stream size                      : 136 MiB (9%)
Capturas
Imagen
Imagen
ImagenImagen
ImagenImagen
ImagenImagen

eMule
eD2K link satsujin.kyo.jidai.(aka.the.age.of.assassins).1967.kihachi.okamoto.dvdrip.xvid.ac3-[keller].avi [1.46 Gb] 

English subtitles
eD2K link satsujin.kyo.jidai.(aka.the.age.of.assassins).1967.kihachi.okamoto.dvdrip.xvid.ac3-[keller].rar [26.6 Kb] 

Subtítulos en español
http://www.subdivx.com/X6XMzAzNjgyX-sat ... -1967.html

Comentario de Silien; Pues ayer, tras The last gunfight me quedé como más ganas de Okamoto, y le tocó a esta. Y buff, es tremenda. Como dice Maurazos, el final en el psiquiátrico es absolutamente memorable. La película tiene montones de ideas por minuto, y parece mentira que esta gente fueran considerados meros artesanos de un cine japonés que para nada es sólo Kurosawa, Mizoguchi, Ozu o Naruse, sino que tiene infinidad de capas, de directores extraordinarios, a los que seguramente su dedicación al cine de género y de los estudios, los dejó en un segundo plano para la historia oficial del cine, cuando rodaban con una habilidad y un saber hacer memorables.

Okamoto está ahí. Hacer películas como Sword of doom, Kill! o esta misma, no está al alcance de cualquiera. Su habilidad, como decía, para cruzar géneros es endiablada (aquí la comedia y el cine negro), y Tetsuya Nakadai además le aporta ese punto de locura que necesita. En fín, una delicia de principio a fin.
Última edición por professor keller el 18 Oct 2012, 07:58, editado 2 veces en total.
La pluma en el ojo
Proyecto colectivo de ideas cinéfilas

Avatar de Usuario
boettcher
 
Mensajes: 1598
Registrado: 17 Oct 2012, 12:01
Agradecido : 976 veces
Agradecimiento recibido: 268 veces

Re: Satsujin Kyo Jidai / (Kihachi Okamoto, 1967) DVDRip VoSE

Mensaje por boettcher » 17 Oct 2012, 19:15

Siempre es un seguro de vida cuando keller postea una película :)

Muchísimas gracias! :)

Avatar de Usuario
professor keller
 
Mensajes: 4651
Registrado: 03 Oct 2012, 10:07
Agradecido : 276 veces
Agradecimiento recibido: 1587 veces

Re: Satsujin Kyo Jidai (Kihachi Okamoto, 1967) DVDRip VoSE

Mensaje por professor keller » 18 Oct 2012, 07:50

Professor, ¿no la traduje hace años? Lo digo por si alguien anda traduciendo lo que ya está...
Por supuesto, disculpa, es que estoy trayendo decenas de posts de otros sitios y se me pasan cosas :water:

Ya los traigo, gracias por avisar :)
La pluma en el ojo
Proyecto colectivo de ideas cinéfilas

Avatar de Usuario
professor keller
 
Mensajes: 4651
Registrado: 03 Oct 2012, 10:07
Agradecido : 276 veces
Agradecimiento recibido: 1587 veces

Re: Satsujin Kyo Jidai (Kihachi Okamoto, 1967) DVDRip VOSE

Mensaje por professor keller » 18 Oct 2012, 08:00

Ahí traje los subs, y de paso aproveché y traje el comentario de Silien :)

Gracias de nuevo. :colega:
La pluma en el ojo
Proyecto colectivo de ideas cinéfilas

Avatar de Usuario
birdmanradio
 
Mensajes: 204
Registrado: 20 Oct 2012, 12:04
Agradecimiento recibido: 4 veces

Re: Satsujin Kyo Jidai (Kihachi Okamoto, 1967) DVDRip VOSE

Mensaje por birdmanradio » 23 Oct 2012, 13:29

Gracias professor keller, despues de leer tu comentario no puedo hacer otra cosa que bajarla :aplauso:

Avatar de Usuario
professor keller
 
Mensajes: 4651
Registrado: 03 Oct 2012, 10:07
Agradecido : 276 veces
Agradecimiento recibido: 1587 veces

Re: Satsujin Kyo Jidai (Kihachi Okamoto, 1967) DVDRip VOSE

Mensaje por professor keller » 23 Oct 2012, 19:07

Hola Birdman, gracias. ¡El comentario es de Silien! Pero lo respaldo ;) La peli es una comedia negra de espionaje, muy, muy delirante.

Una abrazo.
La pluma en el ojo
Proyecto colectivo de ideas cinéfilas

Responder

Volver a “Largos Modernos”