Qui? (Léonard Keigel, 1970) DVDRip VOSE

Puntuación
Sin
puntuar

Moderador: Monsieur Lange

Responder
Avatar de Usuario
professor keller
 
Mensajes: 4654
Registrado: 03 Oct 2012, 10:07
Agradecido : 287 veces
Agradecimiento recibido: 1603 veces

Francia Qui? (Léonard Keigel, 1970) DVDRip VOSE

Mensaje por professor keller » 16 Oct 2012, 13:21

Qui? / The Sensuous Assassin (Léonard Keigel, 1970)

Imagen

IMDb

Dirigida por / Directed by
Léonard Keigel

Reparto / Cast
Romy Schneider, Maurice Ronet, Gabriele Tinti, Simone Bach
Jacques Duby, Jean-Jacques Bourgeois, Anne-Marie Coffinet

Sinopsis: Marina y su novio, Claude, tienen una pelea durante un viaje a Francia. Mientras manejaba sobre los arrecifes, e´l comienza a acelerar y pierde el control del coche, que cae al mar. Marina alcanza saltar, pero su novio cae junto con el auto y parece haberse ahogado. Ella conoce luego al hermano de Claude, y se enamora de él. Pero ¿por qué se siente siempre observada? ¿Qué razones hay detrás de ese extraño comportamiento? ¿Asesinó ella a su novio?

scarabus en KG

Info / Specs

Código: Seleccionar todo

Video
ID                               : 0
Format                           : MPEG-4 Visual
Format profile                   : AdvancedSimple@L5
Format settings, BVOP            : Yes
Format settings, QPel            : No
Format settings, GMC             : No warppoints
Format settings, Matrix          : Default (MPEG)
Codec ID                         : XVID
Codec ID/Hint                    : XviD
Duration                         : 1h 14mn
Bit rate                         : 1 298 Kbps
Width                            : 640 pixels
Height                           : 384 pixels
Display aspect ratio             : 1.667
Frame rate                       : 25.000 fps
Resolution                       : 24 bits
Colorimetry                      : 4:2:0
Scan type                        : Progressive
Bits/(Pixel*Frame)               : 0.211
Stream size                      : 694 MiB (92%)
Writing library                  : XviD 1.1.2 (UTC 2006-11-01)

Audio
ID                               : 1
Format                           : MPEG Audio
Format version                   : Version 1
Format profile                   : Layer 3
Codec ID                         : 55
Codec ID/Hint                    : MP3
Duration                         : 1h 14mn
Bit rate mode                    : Variable
Bit rate                         : 92.5 Kbps
Nominal bit rate                 : 128 Kbps
Channel(s)                       : 1 channel
Sampling rate                    : 48.0 KHz
Resolution                       : 16 bits
Stream size                      : 49.5 MiB (7%)
Alignment                        : Aligned on interleaves
Interleave, duration             : 24 ms (0.60 video frame)
Interleave, preload duration     : 589 ms
Writing library                  : LAME3.97 
Encoding settings                : -m m -V 4 -q 2 -lowpass 20.5 --abr 128
Capturas / Caps
Imagen
Imagen
Imagen
Imagen
Imagen
Imagen
Imagen
Imagen
Imagen

eMule
eD2K link Qui.1970.DVDRip.XviD.mp3-KG.avi [750.35 Mb] 

Subs en español (traducidos por Keller)
http://www.subdivx.com/X6XMjU0MDU1X-qui-1970.html

Dedicada a Vertigen, incansable divulgador del universo femenino en todas sus formas.
La pluma en el ojo
Proyecto colectivo de ideas cinéfilas

Avatar de Usuario
Cecchini
 
Mensajes: 165
Registrado: 19 Oct 2012, 23:06
Agradecimiento recibido: 48 veces

Re: Qui? (Léonard Keigel, 1970) DVDRip VOSE

Mensaje por Cecchini » 09 May 2013, 18:35

Genial, Profesor Keller, una labor encomiable sacar a la luz esta película tan desconocido de la gran Romy Schneider.

jamesdean
 
Mensajes: 168
Registrado: 20 Ene 2014, 11:02
Agradecimiento recibido: 9 veces

Re: Qui? (Léonard Keigel, 1970) DVDRip VOSE

Mensaje por jamesdean » 22 Ene 2014, 18:11

gracias professor keller por darme la oportunidad de bajarme la peli Qui de mi actriz favorita Romy Schneider

vozidar
 
Mensajes: 1246
Registrado: 17 Oct 2012, 05:58
Agradecido : 340 veces
Agradecimiento recibido: 4051 veces

Re: Qui? (Léonard Keigel, 1970) DVDRip VOSE

Mensaje por vozidar » 12 Abr 2015, 08:43

Si a alguien le interesa el DVD español editado por Llamentol (audios fr-esp y subtítulo español), que me escriba por MP y se lo envío sin coste alguno.

Avatar de Usuario
PanchoVertigen
 
Mensajes: 2393
Registrado: 21 Oct 2012, 09:38
Ubicación: Malle. Germania insular. Merkel, Merkel über alles.
Agradecido : 591 veces
Agradecimiento recibido: 6746 veces
Contactar:

Re: Qui? (Léonard Keigel, 1970) DVDRip VOSE

Mensaje por PanchoVertigen » 12 Abr 2015, 09:15

Muchísimas gracias amigo. Es una película que no había vuelto a ver, desde los tiempos de "Mi presidente Videla, el mal aliento combate. ¡Colgate, viejo! ¡Colgate del primer árbol que veas!"
Imagen

Avatar de Usuario
yojimbo
 
Mensajes: 9411
Registrado: 18 Oct 2012, 14:25
Agradecido : 9443 veces
Agradecimiento recibido: 2408 veces

Re: Qui? (Léonard Keigel, 1970) DVDRip VOSE

Mensaje por yojimbo » 12 Abr 2015, 12:12

Magnifique, professor keller!

Avatar de Usuario
gudari
 
Mensajes: 493
Registrado: 01 Sep 2015, 16:58
Agradecido : 283 veces
Agradecimiento recibido: 111 veces

Re: Qui? (Léonard Keigel, 1970) DVDRip VOSE

Mensaje por gudari » 29 May 2016, 15:58

Eskerrik asko, keller.

Avatar de Usuario
sete
 
Mensajes: 4585
Registrado: 22 Dic 2012, 16:10
Agradecido : 252 veces
Agradecimiento recibido: 1415 veces

Re: Qui? (Léonard Keigel, 1970) DVDRip VOSE

Mensaje por sete » 29 May 2016, 19:17

Muchas gracias, professor keller.
:hi:
Este mundo está traicionando a la vida.
José Luis Sampedro

Responder

Volver a “Largos Modernos”