The Shout (Jerzy Skolimowski, 1978) DVDRip VOSE

Puntuación
6/10
1 voto

El Grito

Moderador: Monsieur Lange

Responder
Avatar de Usuario
professor keller
 
Mensajes: 4651
Registrado: 03 Oct 2012, 10:07
Agradecido : 276 veces
Agradecimiento recibido: 1587 veces

Reino Unido The Shout (Jerzy Skolimowski, 1978) DVDRip VOSE

Mensaje por professor keller » 16 Oct 2012, 13:10

The Shout / El Grito (Jerzy Skolimowski, 1978)

Imagen

IMDb / Wikipedia

Imagen
Grand Prize of the Jury, Cannes, 1978

Dirigida por
Jerzy Skolimowski

Basada en un cuento corto de
Robert Graves

Reparto
Alan Bates, Susannah York, John Hurt, Robert Stephens, Tim Curry,
Julian Hough, Carol Drinkwater, John Rees, Jim Broadbent

Sinopsis: Durante el tradicional partido de criquet que juegan todos los años los pacientes de un hospiatal psiquiátrico contra los habitantes de Lampton, Charles Crossley le cuenta a Robert que tiene un poder sobrenatural, aprendido durante los 18 años que pasó con los aborígenes australianos: el poder de matar con un grito.
One of Skolimowski’s most arresting, enigmatic and brilliant films, The Shout features a mesmerizing Alan Bates as a mysterious, otherwordly stranger who arrives in a small English town to unsettle the lives and inexplicably tense marriage of a young couple. Skolimowski transformed Robert Graves’ story into a dark fantasy about masculinity, marriage and the dream life. The Shout makes remarkable use of sound to suggest a terrifyingly fragile and unstable world embodied in the polar figures of John Hurt as a cocksure sound artist trying to capture the soundscapes hidden in the everyday and Bates as a beautiful monster whose sonorous voice conceals a terrible gift. / Harvard Film Archive
El mejor ripeo que pude hacer de una fuente mediocre...

Info

Código: Seleccionar todo

Video
Format                           : AVC
Format/Info                      : Advanced Video Codec
Format profile                   : High@L4.1
Format settings, CABAC           : Yes
Format settings, ReFrames        : 16 frames
Codec ID                         : V_MPEG4/ISO/AVC
Duration                         : 1h 22mn
Bit rate                         : 2 328 Kbps
Width                            : 716 pixels
Height                           : 576 pixels
Display aspect ratio             : 16:9
Original display aspect ratio    : 16:9
Frame rate                       : 25.000 fps
Color space                      : YUV
Chroma subsampling               : 4:2:0
Bit depth                        : 8 bits
Scan type                        : Progressive
Bits/(Pixel*Frame)               : 0.226
Stream size                      : 1.32 GiB (90%)
Writing library                  : x264 core 115 r1947+532 361db68

Audio
Format                           : AC-3
Format/Info                      : Audio Coding 3
Mode extension                   : CM (complete main)
Codec ID                         : A_AC3
Duration                         : 1h 22mn
Bit rate mode                    : Constant
Bit rate                         : 192 Kbps
Channel(s)                       : 2 channels
Channel positions                : Front: L R
Sampling rate                    : 48.0 KHz
Bit depth                        : 16 bits
Compression mode                 : Lossy
Stream size                      : 114 MiB (8%)
Language                         : English
Capturas
ImagenImagenImagen
ImagenImagenImagen
ImagenImagenImagen
ImagenImagenImagen
ImagenImagenImagen

eMule
eD2K link the.shout.1978.dvdrip.x264.ac3.2ch-[keller].mkv [1.46 Gb] 

Subs españoles e ingleses (por scalisto)
http://www.subdivx.com/X6XMjU0NDM2X-the-shout-1978.html
La pluma en el ojo
Proyecto colectivo de ideas cinéfilas

Avatar de Usuario
muriel
 
Mensajes: 3172
Registrado: 16 Oct 2012, 19:00
Agradecido : 309 veces
Agradecimiento recibido: 299 veces

Re: The Shout (Jerzy Skolimowski, 1978) DVDRip VOSE

Mensaje por muriel » 18 Feb 2013, 20:04

muchísimas gracias, profesor keller, es un rip estupendo.
Por favor, cuando completéis los archivos mantenedlos al menos 15 días en el incoming. Gracias.
Imagen

Avatar de Usuario
muriel
 
Mensajes: 3172
Registrado: 16 Oct 2012, 19:00
Agradecido : 309 veces
Agradecimiento recibido: 299 veces

Re: The Shout (Jerzy Skolimowski, 1978) DVDRip VOSE

Mensaje por muriel » 26 Feb 2013, 22:20

no sé si es por que hay pocas fuentes, pero llevo una semana prendida y no bajó ni el 18% :???: , el caso que todas las fuentes están completas, pero no baja.
Las otras que tengo bajando y compartiendo van bastante bien, no sé que puede pasar. :idea:
Por favor, cuando completéis los archivos mantenedlos al menos 15 días en el incoming. Gracias.
Imagen

Avatar de Usuario
professor keller
 
Mensajes: 4651
Registrado: 03 Oct 2012, 10:07
Agradecido : 276 veces
Agradecimiento recibido: 1587 veces

Re: The Shout (Jerzy Skolimowski, 1978) DVDRip VOSE

Mensaje por professor keller » 26 Feb 2013, 23:51

muriel escribió:no sé si es por que hay pocas fuentes, pero llevo una semana prendida y no bajó ni el 18% :???: , el caso que todas las fuentes están completas, pero no baja.
muriel, si hay fuentes completas, a la larga va a bajar. Este problema se genera cuando las pocas personas que tiene compartido el archivo tiene otros archivos con prioridad de subida. Pero más allá de la demora, terminará bajando si hay fuentes completas, de eso no hay duda.

Mi consejo es: olvídate de él, ya bajará. Ya sabes lo que responde el FAQ oficial de eMule a la pregunta ¿Cómo puedo incrementar la velocidad de mis descargas?: No se quede como un tonto mirando al eMule. A eMule no le gusta que lo miren.

;)
La pluma en el ojo
Proyecto colectivo de ideas cinéfilas

Avatar de Usuario
muriel
 
Mensajes: 3172
Registrado: 16 Oct 2012, 19:00
Agradecido : 309 veces
Agradecimiento recibido: 299 veces

Re: The Shout (Jerzy Skolimowski, 1978) DVDRip VOSE

Mensaje por muriel » 16 Mar 2013, 16:38

me quedé estancada en el 65'6% y no baja más. :???:

Si alguien más pudiera poner la peli a compartir en el incoming se lo agradecería. :hi:
Por favor, cuando completéis los archivos mantenedlos al menos 15 días en el incoming. Gracias.
Imagen

Avatar de Usuario
cagney
 
Mensajes: 572
Registrado: 18 Oct 2012, 00:02
Agradecido : 342 veces
Agradecimiento recibido: 580 veces

Re: The Shout (Jerzy Skolimowski, 1978) DVDRip VOSE

Mensaje por cagney » 29 Nov 2017, 14:03

Hola.
Puede alguien resubir el archivo a fin de poder completar esta descarga?
Gracias de antemano.

Avatar de Usuario
professor keller
 
Mensajes: 4651
Registrado: 03 Oct 2012, 10:07
Agradecido : 276 veces
Agradecimiento recibido: 1587 veces

Re: The Shout (Jerzy Skolimowski, 1978) DVDRip VOSE

Mensaje por professor keller » 30 Nov 2017, 18:29

Amigos: no tengo más este archivo. Hay en la red varios ripeos de bluray disponibles, entre ellos el de mfcorrea en TPB.
La pluma en el ojo
Proyecto colectivo de ideas cinéfilas

Responder

Volver a “Largos Modernos”