Otoshiana (Hiroshi Teshigahara, 1962) DVDRip VOSE

Puntuación
6/10
2 votos

La trampa

Moderador: Monsieur Lange

Responder
Avatar de Usuario
professor keller
 
Mensajes: 4651
Registrado: 03 Oct 2012, 10:07
Agradecido : 276 veces
Agradecimiento recibido: 1587 veces

Japón Otoshiana (Hiroshi Teshigahara, 1962) DVDRip VOSE

Mensaje por professor keller » 16 Oct 2012, 13:08

Otoshiana / Pitfall (Hiroshi Teshigahara, 1962)

Imagen
IMDb (7.9) / Wikipedia

Dirigida por
Hiroshi Teshigahara

Reparto
Hisashi Igawa, Kunie Tanaka, Hideo Kanze, Sumie Sasaki

Sinopsis: Un minero vaga en busca de trabajo, acompañado de su hijo de corta edad. En este deambular llegará hasta un extraño pueblo fantasma, donde solo vive una mujer que regenta una pequeña tienda. Allí es atacado por un misterioso hombre de traje y guantes blancos...

Ripeo X264 (Q0S) de la edición Criterion

Info

Código: Seleccionar todo

Video
ID                               : 1
Format                           : AVC
Format/Info                      : Advanced Video Codec
Format profile                   : High@L4.1
Format settings, CABAC           : Yes
Format settings, ReFrames        : 16 frames
Codec ID                         : V_MPEG4/ISO/AVC
Duration                         : 1h 37mn
Bit rate                         : 1 951 Kbps
Width                            : 664 pixels
Height                           : 448 pixels
Display aspect ratio             : 4:3
Frame rate                       : 23.976 fps
Color space                      : YUV
Chroma subsampling               : 4:2:0
Bit depth                        : 8 bits
Scan type                        : Progressive
Bits/(Pixel*Frame)               : 0.274
Stream size                      : 1.30 GiB (89%)
Writing library                  : x264 core 114 r1913 5fd3dce
Encoding settings                : cabac=1 / ref=16 / deblock=1:-2:-2 / analyse=0x3:0x133 / me=umh / subme=10 / psy=1 / psy_rd=1.20:0.15 / mixed_ref=1 / me_range=24 / chroma_me=1 / trellis=2 / 8x8dct=1 / cqm=0 / deadzone=21,11 / fast_pskip=0 / chroma_qp_offset=-3 / threads=9 / sliced_threads=0 / nr=0 / decimate=0 / interlaced=0 / constrained_intra=0 / bframes=8 / b_pyramid=2 / b_adapt=2 / b_bias=0 / direct=3 / weightb=1 / open_gop=0 / weightp=2 / keyint=250 / keyint_min=23 / scenecut=40 / intra_refresh=0 / rc=2pass / mbtree=0 / bitrate=1951 / ratetol=1.0 / qcomp=0.60 / qpmin=0 / qpmax=69 / qpstep=4 / cplxblur=20.0 / qblur=0.5 / ip_ratio=1.40 / pb_ratio=1.30 / aq=1:0.80
Language                         : English

Audio
ID                               : 2
Format                           : AC-3
Format/Info                      : Audio Coding 3
Mode extension                   : CM (complete main)
Codec ID                         : A_AC3
Duration                         : 1h 37mn
Bit rate mode                    : Constant
Bit rate                         : 192 Kbps
Channel(s)                       : 1 channel
Channel positions                : Front: C
Sampling rate                    : 48.0 KHz
Bit depth                        : 16 bits
Compression mode                 : Lossy
Stream size                      : 134 MiB (9%)
Language                         : Japanese
Capturas
Imagen
Imagen
Imagen
Imagen

eMule
eD2K link Pitfall.1962.Criterion.NTSC.DVDRip.x264.AC3-Q0S.mkv [1.46 Gb] 

Subtítulos traducidos por Krillov para Allzine
eD2K link Pitfall.1962.Criterion.NTSC.DVDRip.x264.AC3-Q0S.srt [43.9 Kb] 
La pluma en el ojo
Proyecto colectivo de ideas cinéfilas

Responder

Volver a “Largos Modernos”