La veuve Couderc (Pierre Granier-Deferre, 1971) DVDRip VOSE

Puntuación
7/10
1 voto

Moderador: Monsieur Lange

Responder
Avatar de Usuario
Graveland
 
Mensajes: 4585
Registrado: 22 Nov 2012 15:30
Agradecido : 3334 veces
Agradecimiento recibido: 4082 veces

Francia La veuve Couderc (Pierre Granier-Deferre, 1971) DVDRip VOSE

Mensaje por Graveland » 11 Sep 2021 20:23

roisiano escribió:
24 Feb 2011 11:05
La viuda Couderc (La veuve Couderc) (Pierre Granier-Deferre, 1971)

Imagen
Imagen
Imagen
Filmaffinity | IMDb

GUIÓN: Pierre Granier-Deferre, Pascal Jardin (Novela: Georges Simenon)
MÚSICA: Philippe Sarde
FOTOGRAFÍA: Walter Wottitz
REPARTO: Alain Delon, Simone Signoret, Ottavia Piccolo, Jean Tissier, Monique Chaumette, Boby Lapointe, Jean-Pierre Castaldi, Pierre Collet
PRODUCTORA: Coproducción Francia-Italia; Lira Films / Pegaso Cinematografica
GÉNERO: Drama | Acción | Romance
SINOPSIS: La viuda Couderc, que habita en una lejana granja, acoge a un atractivo joven que huye de un crimen. Los celos se apoderan de la situación con la presencia de la bella Félicie, hijastra de Couderc. (FILMAFFINITY)


Ripeo anamórfico

Código: Seleccionar todo

Resolution: 690 x 476
Frame aspect ratio: 345:238 = 1.449579
Pixel aspect ratio: 817:690 = 1.184057
Display aspect ratio: 817:476 = 1.716386
con esta configuración:

Código: Seleccionar todo

"C:\x264.exe" --preset veryslow --tune film --crf 20.0 --level 4.1 --output "C:\mi_ripeo.mkv" "C:\mi_script.avs" --sar 32:27
Script:
Spoiler:

Código: Seleccionar todo

#  PLUGINS
LoadPlugin("C:\PROGRA~2\GORDIA~1\DGMPGDec\DGDecode.dll")
LoadPlugin("C:\PROGRA~2\GORDIA~1\AviSynthPlugins\UnDot.dll")
LoadPlugin("C:\PROGRA~2\GORDIA~1\AviSynthPlugins\TIVTC.dll")
Import("C:\Program Files (x86)\AviSynth 2.5\plugins\MCTemporalDenoise.v1.4.20.avs")

#  SOURCE
mpeg2source("C:\DVD\La veuve Couderc (1971) (rip)\Veuve.d2v")

# Filtrado muy suave:
MT("""
MCTemporalDenoise(settings="very low",sigma=2,chroma=true,enhance=false,sharp=false,GPU=false)
""",threads=0,overlap=8)

# 29.97 a 23.976:
tfm().tdecimate() # 99% para abajo de film en vídeos NTSC, o DVD's criterion, o para IVTC "a secas"

#  CROPPING
crop(12,0,690,476)

#  DENOISING: cambiar una combinación (o ninguna)
Undot()
Imagen
Imagen
Imagen
Imagen
Imagen

Código: Seleccionar todo

Format : Matroska 
File size : 1.39 GiB 
Duration : 1h 29mn 
Overall bit rate : 2 232 Kbps 
Encoded date : UTC 2011-02-24 09:43:27 
Writing application : mkvmerge v4.0.0 ('The Stars were mine') built on Jun 6 2010 16:18:42 
Writing library : libebml v1.0.0 + libmatroska v1.0.0 

Video 
ID : 1 
Format : AVC 
Format/Info : Advanced Video Codec 
Format profile : High@L4.1 
Format settings, CABAC : Yes 
Format settings, ReFrames : 16 frames 
Codec ID : V_MPEG4/ISO/AVC 
Duration : 1h 29mn 
Bit rate : 2 060 Kbps 
Width : 690 pixels 
Height : 476 pixels 
Display aspect ratio : 16:9 
Original display aspect ratio : 16:9 
Frame rate : 23.976 fps 
Color space : YUV 
Chroma subsampling : 4:2:0 
Bit depth : 8 bits 
Scan type : Progressive 
Bits/(Pixel*Frame) : 0.262 
Stream size : 1.28 GiB (92%) 
Writing library : x264 core 114 r1913 5fd3dce 
Encoding settings : cabac=1 / ref=16 / deblock=1:-1:-1 / analyse=0x3:0x133 / me=umh / subme=10 / psy=1 / psy_rd=1.00:0.15 / mixed_ref=1 / me_range=24 / chroma_me=1 / trellis=2 / 8x8dct=1 / cqm=0 / deadzone=21,11 / fast_pskip=1 / chroma_qp_offset=-3 / threads=6 / sliced_threads=0 / nr=0 / decimate=1 / interlaced=0 / constrained_intra=0 / bframes=8 / b_pyramid=2 / b_adapt=2 / b_bias=0 / direct=3 / weightb=1 / open_gop=0 / weightp=2 / keyint=250 / keyint_min=23 / scenecut=40 / intra_refresh=0 / rc_lookahead=60 / rc=crf / mbtree=1 / crf=20.0 / qcomp=0.60 / qpmin=0 / qpmax=69 / qpstep=4 / ip_ratio=1.40 / aq=1:1.00 
Language : English 

Audio 
ID : 2 
Format : MPEG Audio 
Format version : Version 1 
Format profile : Layer 3 
Mode : Joint stereo 
Mode extension : MS Stereo 
Codec ID : A_MPEG/L3 
Codec ID/Hint : MP3 
Duration : 1h 29mn 
Bit rate mode : Constant 
Bit rate : 128 Kbps 
Channel(s) : 2 channels 
Sampling rate : 48.0 KHz 
Compression mode : Lossy 
Stream size : 81.7 MiB (6%) 
Writing library : LAME3.98r 
Encoding settings : -m j -V 4 -q 2 -lowpass 17 -b 128 
Language : French 

Text #1 
ID : 3 
Format : UTF-8 
Codec ID : S_TEXT/UTF8 
Codec ID/Info : UTF-8 Plain Text 
Language : Spanish 

Text #2 
ID : 4 
Format : UTF-8 
Codec ID : S_TEXT/UTF8 
Codec ID/Info : UTF-8 Plain Text 
Language : English  

:arrow: [ed2k=eD2K link La.Veuve.Couderc.1971.DVDRip.x264.mkv [1.39 Gb] [/ed2k] (DVDRip V.O. con subtítulos en español e inglés en el contenedor MKV )


----------------------------------------------------

Imagen Imagen

Web oficial del codec x264 (inglés) | Web en español sobre el codec x264
Manual de ripeo con x264 en línea de comandos (español) | Parámetros de codificación (inglés)
Contenedor Matroska (español) | Matroska en wikipedia (español): software de PC compatible, etc.
MKVToolnix, herramientas de edición para matroska (inglés) | Tutorial MKVToolnix (español)
MKVExtractGui | Manual de extracción de cadenas de audio/vídeo/subtítulos en MKV (español)

Avatar de Usuario
professor keller
 
Mensajes: 5048
Registrado: 03 Oct 2012 10:07
Agradecido : 432 veces
Agradecimiento recibido: 1781 veces

Re: La veuve Couderc (Pierre Granier-Deferre, 1971) DVDRip VOSE

Mensaje por professor keller » 11 Sep 2021 20:46

Gracias, Graveland, gran película de Granier-Deferre.

Quienes prefieran ripeos de bluray y usen torrent, pueden conseguir en RARBG ésta y otras películas de este director (Le chat, Adieu poulet, Le train, etc.) en ese formato.
"Urge que hagamos una crítica despiadada de todo lo que existe, despiadada en el sentido de que nuestra crítica no ha de temer ni sus propios resultados ni el conflicto con los poderes establecidos.” Karl Marx

Avatar de Usuario
Guiller3
 
Mensajes: 1022
Registrado: 12 May 2013 03:58
Ubicación: Si eres mujer, búscame en tu corazón. Si eres hombre, me hallarás en tu cabeza.
Agradecido : 438 veces
Agradecimiento recibido: 654 veces

Re: La veuve Couderc (Pierre Granier-Deferre, 1971) DVDRip VOSE

Mensaje por Guiller3 » 11 Sep 2021 21:09

Llamativo triángulo amoroso con la siempre magnífica Simone Signoret... y la firma de, Georges Simenon, en la novela, es bastante tentadora.

Notable aporte, Graveland.

Imagen

1111111
 
Mensajes: 2
Registrado: 11 Sep 2021 22:05
Agradecimiento recibido: 1 vez

Re: La veuve Couderc (Pierre Granier-Deferre, 1971) DVDRip VOSE

Mensaje por 1111111 » 11 Sep 2021 22:18

ole

ciberyago
 
Mensajes: 2679
Registrado: 20 Oct 2012 07:26
Agradecido : 1 vez
Agradecimiento recibido: 495 veces

Re: La veuve Couderc (Pierre Granier-Deferre, 1971) DVDRip VOSE

Mensaje por ciberyago » 12 Sep 2021 07:00

muchas gracias

Avatar de Usuario
tonapar1
 
Mensajes: 5933
Registrado: 16 Oct 2012 20:19
Agradecido : 1200 veces
Agradecimiento recibido: 2071 veces

Re: La veuve Couderc (Pierre Granier-Deferre, 1971) DVDRip VOSE

Mensaje por tonapar1 » 12 Sep 2021 16:48

Muchas gracias por el ripeo a roisiano y graveland. Un saludo a ambos.

Avatar de Usuario
irazar
 
Mensajes: 1062
Registrado: 16 Oct 2012 20:11
Agradecido : 257 veces
Agradecimiento recibido: 2425 veces

Re: La veuve Couderc (Pierre Granier-Deferre, 1971) DVDRip VOSE

Mensaje por irazar » 13 Sep 2021 21:43

Coincido con el profe, gran película. El gran cine francés policier (o no) de los 70, 80 y 90, al que mucho tiene que envidiar el trhiller (perdón) del siglo XXI, lleno de excipientes, colorantes y mandangas. Aquí se va directo a lo que se va.

- Y de los actores, ¿qué me dice usted, don Organiano?
- Qué le voy a decir, hombre: que no han vuelto a nacer otros tales.


Aunque ya la tengo, gracias, Grave.

Responder

Volver a “Largos Modernos”