La Morte Accarezza A Mezzanotte (Luciano Ercoli, 1972) BRRip Dual SE

Puntuación
5/10
1 voto

La Muerte Acaricia A Medianoche.

Moderador: Monsieur Lange

Responder
Avatar de Usuario
locotus
 
Mensajes: 1059
Registrado: 16 Oct 2012 18:18
Agradecido : 62 veces
Agradecimiento recibido: 6422 veces

Italia La Morte Accarezza A Mezzanotte (Luciano Ercoli, 1972) BRRip Dual SE

Mensaje por locotus » 05 May 2021 20:28

- La Morte Accarezza A Mezzanotte
- La Muerte Acaricia A Medianoche - Death Walks At Midnight

Imagen

Directed by Luciano Ercoli

Writing Credits:
Sergio Corbucci ... (story)
Ernesto Gastaldi ... (screenplay) &
Mahnahén Velasco ... (screenplay) (as May Velasco)
Guido Leoni ... (dialogue) (uncredited)

Cast:
Nieves Navarro ... Valentina (as Susan Scott)
Simón Andreu ... Gio Baldi
Peter Martell ... Stefano
Carlo Gentili ... Inspector Serino
Ivano Staccioli ... Prof. Otto Wuttenberg
Claudio Pellegrini... Henri Velaq
Fabrizio Moresco ... Pepito
Alessandro Perrella... Van Driver
Elio Veller ... Pino
Luciano Rossi ... Hans Krutzer

Runtime: 102 min
Sound Mix: Mono (Westrex Sound System)
Color: Color (Technicolor)
Aspect Ratio: 2.35 : 1

https://www.imdb.com/title/tt0068971/
Sinopsis:
Una modelo accede a tomar parte de un bizarro experimento con una droga alucinogena.
Bajo la experiencia de dicha droga, tiene una vision de una joven mujer brutalmente
asesinada con un mortal guante de garras. (FILMAFFINITY)

Capturas:

ImagenImagenImagenImagen

ImagenImagenImagenImagen
Datos:

Código: Seleccionar todo

General
Unique ID                   : 38398876640203990827052451715247959725 (0x1CE35AC95FB015185FC6EE50F902EEAD)
Complete name               : La Morte Accarezza A Mezzanotte (1972) BRRip.Dual.mkv
Format                      : Matroska
Format version              : Version 4
File size                   : 2.01 GiB
Duration                    : 1 h 41 min
Overall bit rate            : 2 830 kb/s
Encoded date                : UTC 2021-05-05 17:23:27
Writing application         : mkvmerge v56.1.0 ('My Friend') 64-bit
Writing library             : libebml v1.4.2 + libmatroska v1.6.4

Video
ID                          : 1
Format                      : AVC
Format/Info                 : Advanced Video Codec
Format profile              : High@L4.1
Format settings             : CABAC / 4 Ref Frames
Format settings, CABAC      : Yes
Format settings, Reference  : 4 frames
Codec ID                    : V_MPEG4/ISO/AVC
Duration                    : 1 h 41 min
Bit rate                    : 2 500 kb/s
Width                       : 1 920 pixels
Height                      : 816 pixels
Display aspect ratio        : 2.35:1
Frame rate mode             : Constant
Frame rate                  : 23.976 (23976/1000) FPS
Color space                 : YUV
Chroma subsampling          : 4:2:0
Bit depth                   : 8 bits
Scan type                   : Progressive
Bits/(Pixel*Frame)          : 0.067
Stream size                 : 1.78 GiB (88%)
Writing library             : x264 core 152 r2851M ba24899
Encoding settings           : cabac=1 / ref=4 / deblock=1:-1:-1 / analyse=0x3:0x113 / me=umh / subme=9 / psy=1 / psy_rd=1.00:0.15 / mixed_ref=1 / me_range=24 / chroma_me=1 / trellis=2 / 8x8dct=1 / cqm=0 / deadzone=21,11 / fast_pskip=1 / chroma_qp_offset=-3 / threads=16 / lookahead_threads=4 / sliced_threads=0 / nr=0 / decimate=1 / interlaced=0 / bluray_compat=0 / constrained_intra=0 / bframes=3 / b_pyramid=2 / b_adapt=2 / b_bias=0 / direct=3 / weightb=1 / open_gop=0 / weightp=2 / keyint=250 / keyint_min=25 / scenecut=40 / intra_refresh=0 / rc_lookahead=50 / rc=2pass / mbtree=1 / bitrate=2500 / ratetol=1.0 / qcomp=0.60 / qpmin=0 / qpmax=69 / qpstep=4 / cplxblur=20.0 / qblur=0.5 / vbv_maxrate=31250 / vbv_bufsize=31250 / nal_hrd=none / filler=0 / ip_ratio=1.40 / aq=3:1.00
Default                     : Yes
Forced                      : No

Audio #1
ID                          : 2
Format                      : AAC LC
Format/Info                 : Advanced Audio Codec Low Complexity
Codec ID                    : A_AAC-2
Duration                    : 1 h 41 min
Bit rate                    : 224 kb/s
Channel(s)                  : 1 channel
Channel layout              : C
Sampling rate               : 48.0 kHz
Frame rate                  : 46.875 FPS (1024 SPF)
Compression mode            : Lossy
Delay relative to video     : -43 ms
Stream size                 : 163 MiB (8%)
Language                    : Italian
Default                     : Yes
Forced                      : No

Audio #2
ID                          : 3
Format                      : AAC Main
Format/Info                 : Advanced Audio Codec
Codec ID                    : A_AAC-1
Duration                    : 1 h 41 min
Bit rate                    : 96.0 kb/s
Channel(s)                  : 2 channels
Channel layout              : L R
Sampling rate               : 48.0 kHz
Frame rate                  : 46.875 FPS (1024 SPF)
Compression mode            : Lossy
Delay relative to video     : -43 ms
Stream size                 : 69.9 MiB (3%)
Language                    : Spanish
Default                     : No
Forced                      : No

Text #1
ID                          : 4
Format                      : VobSub
Muxing mode                 : zlib
Codec ID                    : S_VOBSUB
Codec ID/Info               : Picture based subtitle format used on DVDs
Duration                    : 1 h 41 min
Bit rate                    : 6 892 b/s
Count of elements           : 879
Stream size                 : 4.98 MiB (0%)
Language                    : English
Default                     : Yes
Forced                      : No

Text #2
ID                          : 5
Format                      : VobSub
Muxing mode                 : zlib
Codec ID                    : S_VOBSUB
Codec ID/Info               : Picture based subtitle format used on DVDs
Duration                    : 1 h 41 min
Bit rate                    : 7 361 b/s
Count of elements           : 864
Stream size                 : 5.35 MiB (0%)
Language                    : Spanish
Default                     : No
Forced                      : No
Archivo original del grupo VXT, audio y video untouched.
Audio español tomado de un avi bajado por eMule,
subtitulos españoles de Prof. Keller y Santasangre. Ingleses bajaron on el archivo.

Película:
eD2K link La Morte Accarezza A Mezzanotte (1972) BRRip.Dual.mkv [2.01 Gb] 
“Si no lees los periódicos estás desinformado”.
Y si los lees estás mal informado”.
Denzel Washington.

Avatar de Usuario
professor keller
 
Mensajes: 4925
Registrado: 03 Oct 2012 10:07
Agradecido : 359 veces
Agradecimiento recibido: 1641 veces

Re: La Morte Accarezza A Mezzanotte (Luciano Ercoli, 1972) BRRip Dual SE

Mensaje por professor keller » 05 May 2021 22:23

Otros subtítulos hechos en tiempos antediluvianos. ¡Nieves Navarro! Tante grazie, Locotus.
"Urge que hagamos una crítica despiadada de todo lo que existe, despiadada en el sentido de que nuestra crítica no ha de temer ni sus propios resultados ni el conflicto con los poderes establecidos.” Karl Marx

Avatar de Usuario
tonapar1
 
Mensajes: 5785
Registrado: 16 Oct 2012 20:19
Agradecido : 1145 veces
Agradecimiento recibido: 2004 veces

Re: La Morte Accarezza A Mezzanotte (Luciano Ercoli, 1972) BRRip Dual SE

Mensaje por tonapar1 » 06 May 2021 15:00

Muchas gracias por el ripeo y los subs a locotus, grupo vxt, professor keller y Santasangre. Un saludo a todos ellos.

Avatar de Usuario
Graveland
 
Mensajes: 4458
Registrado: 22 Nov 2012 15:30
Agradecido : 3120 veces
Agradecimiento recibido: 4002 veces

Re: La Morte Accarezza A Mezzanotte (Luciano Ercoli, 1972) BRRip Dual SE

Mensaje por Graveland » 12 May 2021 12:57

Muchas gracias a todos.

Avatar de Usuario
gatatitania
 
Mensajes: 5544
Registrado: 16 Oct 2012 18:27
Ubicación: Gatatitania es un gato hambriento, superviviente del planeta gatatitania...
Agradecido : 2917 veces
Agradecimiento recibido: 1731 veces

Re: La Morte Accarezza A Mezzanotte (Luciano Ercoli, 1972) BRRip Dual SE

Mensaje por gatatitania » 16 May 2021 11:12

¡Gracias a todo el equipo! :agite: :agite: :agite:

Responder

Volver a “Largos Modernos”