Macchie Solari (Armando Crispino, 1975) BRRip Dual

Puntuación
Sin
puntuar

Autopsia - Tensión.

Moderador: Monsieur Lange

Responder
Avatar de Usuario
locotus
 
Mensajes: 982
Registrado: 16 Oct 2012 18:18
Agradecido : 51 veces
Agradecimiento recibido: 5876 veces

Italia Macchie Solari (Armando Crispino, 1975) BRRip Dual

Mensaje por locotus » 08 Abr 2021 00:48

Macchie Solari - Autopsy - The Victim -Autopsia - Tensión

Imagen

Directed by Armando Crispino

Writing Credits:
Lucio Battistrada ... (written by)
Armando Crispino ... (written by)

Cast:
Mimsy Farmer ... Simona Sanna
Barry Primus ... Father Paul Lenox
Ray Lovelock ... Riccardo
Carlo Cataneo ... Lello Sanna
Angela Goodwin ... Danielle
Gaby Wagner ... Betty Lenox
Massimo Serato ... Gianni Sanna
Ernesto Colli ... Ivo
Leonardo Severini ... Caretaker
Eleonora Morana ... Eleonora
Antonio Casale ... Inspector Silvestri
Giovanni Di Benedetto ... Professor Mari
Pier Giovanni Anchisi ... Archivist at Criminal Museum (as Piero Anchisi)
Maria Pia Attanasio ... Aunt Elvira
Sergio Sinceri ... Doctor
Pupino Samona ... Doctor with beard (as Pupino Samonà)

Runtime: 85 min (edited) | 100 min (uncut)
Sound Mix: Mono
Color: Color
Aspect Ratio: 1.85 : 1

https://www.imdb.com/title/tt0073327/
Sinopsis:
Simona hija de Gianni Sanna, trabaja en un depósito de cadáveres. Es amiga de Edgardo, un fotógrafo.
La muerte de Betty, la futura esposa de su padre y hermana de Paul, un sacerdote, provoca una atmósfera
de mutuas sospechas. Según la policía la muerte de Betty es un suicidio, pero el sacerdote está convencido
de que ha sido un asesinato. Gianni también es asesinado.... (FILMAFFINITY)
Capturas:
ImagenImagenImagenImagen

ImagenImagenImagenImagen
Datos:

Código: Seleccionar todo

General
Unique ID                   : 90835822010368060772515565981053996591 (0x445657CC71060BDA1634BC0C2E0FCE2F)
Complete name               : Macchie Solari (1975) BRRip.Dual-VXT.mkv
Format                      : Matroska
Format version              : Version 4
File size                   : 1.66 GiB
Duration                    : 1 h 40 min
Overall bit rate            : 2 356 kb/s
Encoded date                : UTC 2021-04-07 22:36:48
Writing application         : mkvmerge v56.0.0 ('Strasbourg / St. Denis') 64-bit
Writing library             : libebml v1.4.2 + libmatroska v1.6.4

Video
ID                          : 1
Format                      : HEVC
Format/Info                 : High Efficiency Video Coding
Format profile              : Main 10@L4@Main
Codec ID                    : V_MPEGH/ISO/HEVC
Duration                    : 1 h 40 min
Bit rate                    : 2 001 kb/s
Width                       : 1 920 pixels
Height                      : 1 032 pixels
Display aspect ratio        : 1.85:1
Frame rate mode             : Constant
Frame rate                  : 23.976 (24000/1001) FPS
Color space                 : YUV
Chroma subsampling          : 4:2:0
Bit depth                   : 10 bits
Bits/(Pixel*Frame)          : 0.042
Stream size                 : 1.41 GiB (85%)
Writing library             : x265 3.3+4-rarbg-30eb4de83092:[Linux][GCC 8.3.1][64 bit] 10bit
Encoding settings           : cpuid=1111039 / frame-threads=4 / wpp / no-pmode / no-pme / no-psnr / no-ssim / log-level=2 / input-csp=1 / input-res=1920x1032 / interlace=0 / total-frames=0 / level-idc=0 / high-tier=1 / uhd-bd=0 / ref=4 / no-allow-non-conformance / no-repeat-headers / annexb / no-aud / no-hrd / info / hash=0 / no-temporal-layers / open-gop / min-keyint=23 / keyint=250 / gop-lookahead=0 / bframes=4 / b-adapt=2 / b-pyramid / bframe-bias=0 / rc-lookahead=25 / lookahead-slices=4 / scenecut=40 / hist-scenecut=0 / radl=0 / no-splice / no-intra-refresh / ctu=64 / min-cu-size=8 / rect / no-amp / max-tu-size=32 / tu-inter-depth=1 / tu-intra-depth=1 / limit-tu=0 / rdoq-level=2 / dynamic-rd=0.00 / no-ssim-rd / signhide / no-tskip / nr-intra=0 / nr-inter=0 / no-constrained-intra / strong-intra-smoothing / max-merge=3 / limit-refs=3 / limit-modes / me=3 / subme=3 / merange=57 / temporal-mvp / no-frame-dup / no-hme / weightp / no-weightb / no-analyze-src-pics / deblock=0:0 / no-sao / no-sao-non-deblock / rd=4 / selective-sao=0 / no-early-skip / rskip / no-fast-intra / no-tskip-fast / no-cu-lossless / no-b-intra / no-splitrd-skip / rdpenalty=0 / psy-rd=2.00 / psy-rdoq=1.00 / no-rd-refine / no-lossless / cbqpoffs=0 / crqpoffs=0 / rc=abr / bitrate=2000 / qcomp=0.60 / qpstep=4 / stats-write=0 / stats-read=2 / cplxblur=20.0 / qblur=0.5 / ipratio=1.40 / pbratio=1.30 / aq-mode=3 / aq-strength=1.00 / cutree / zone-count=0 / no-strict-cbr / qg-size=32 / no-rc-grain / qpmax=69 / qpmin=0 / no-const-vbv / sar=1 / overscan=0 / videoformat=5 / range=0 / colorprim=2 / transfer=2 / colormatrix=2 / chromaloc=0 / display-window=0 / cll=0,0 / min-luma=0 / max-luma=1023 / log2-max-poc-lsb=8 / vui-timing-info / vui-hrd-info / slices=1 / no-opt-qp-pps / no-opt-ref-list-length-pps / no-multi-pass-opt-rps / scenecut-bias=0.05 / hist-threshold=0.01 / no-opt-cu-delta-qp / no-aq-motion / no-hdr10 / no-hdr10-opt / no-dhdr10-opt / no-idr-recovery-sei / analysis-reuse-level=0 / analysis-save-reuse-level=0 / analysis-load-reuse-level=0 / scale-factor=0 / refine-intra=0 / refine-inter=0 / refine-mv=1 / refine-ctu-distortion=0 / no-limit-sao / ctu-info=0 / no-lowpass-dct / refine-analysis-type=0 / copy-pic=1 / max-ausize-factor=1.0 / no-dynamic-refine / no-single-sei / no-hevc-aq / no-svt / no-field / qp-adaptation-range=1.00 / no-scenecut-aware-qpconformance-window-offsets / right=0 / bottom=0
Default                     : Yes
Forced                      : No

Audio #1
ID                          : 2
Format                      : AAC LC
Format/Info                 : Advanced Audio Codec Low Complexity
Codec ID                    : A_AAC-2
Duration                    : 1 h 40 min
Bit rate                    : 224 kb/s
Channel(s)                  : 2 channels
Channel layout              : L R
Sampling rate               : 48.0 kHz
Frame rate                  : 46.875 FPS (1024 SPF)
Compression mode            : Lossy
Delay relative to video     : -43 ms
Stream size                 : 161 MiB (10%)
Language                    : Italian
Default                     : Yes
Forced                      : No

Audio #2
ID                          : 3
Format                      : AAC LC
Format/Info                 : Advanced Audio Codec Low Complexity
Codec ID                    : A_AAC-2
Duration                    : 1 h 40 min
Bit rate                    : 128 kb/s
Channel(s)                  : 2 channels
Channel layout              : L R
Sampling rate               : 48.0 kHz
Frame rate                  : 46.875 FPS (1024 SPF)
Compression mode            : Lossy
Delay relative to video     : -43 ms
Stream size                 : 92.0 MiB (5%)
Language                    : Spanish
Default                     : No
Forced                      : No

Menu
00:00:00.000                : Chapter 0
00:30:28.339                : marker 1
Archivo ripeado por grupo VXT, audio italiano y video untouched.
Audio español tomado de un avi de Terror Fantástico-Hispacine.

eD2K link Macchie Solari (1975) BRRip.Dual-VXT.mkv [1.66 Gb] 
“Si no lees los periódicos estás desinformado”.
Y si los lees estás mal informado”.
Denzel Washington.

Avatar de Usuario
Graveland
 
Mensajes: 4325
Registrado: 22 Nov 2012 15:30
Agradecido : 2907 veces
Agradecimiento recibido: 3927 veces

Re: Macchie Solari (Armando Crispino, 1975) BRRip Dual

Mensaje por Graveland » 08 Abr 2021 12:33

Muchas gracias, locotus.

Avatar de Usuario
professor keller
 
Mensajes: 4851
Registrado: 03 Oct 2012 10:07
Agradecido : 333 veces
Agradecimiento recibido: 1577 veces

Re: Macchie Solari (Armando Crispino, 1975) BRRip Dual

Mensaje por professor keller » 08 Abr 2021 19:33

Gracias, Locotus. Yo anuncié hace poco que estoy con estos subtítulos. Cuando iré a terminarlos, no lo sé, pero dejó constancia para no pisarnos el trabajo. Si alguien con mucho tiempo libre en sus manos quiere hacerlos antes, solo tiene que escribirme por privado.
¿Quiere acosar a los usuarios pero no sabe cómo? ¡Consígase un CAZATROLS y acose sin culpas por todas partes!

Avatar de Usuario
locotus
 
Mensajes: 982
Registrado: 16 Oct 2012 18:18
Agradecido : 51 veces
Agradecimiento recibido: 5876 veces

Re: Macchie Solari (Armando Crispino, 1975) BRRip Dual

Mensaje por locotus » 08 Abr 2021 19:42

professor keller escribió:
08 Abr 2021 19:33
Gracias, Locotus. Yo anuncié hace poco que estoy con estos subtítulos. Cuando iré a terminarlos, no lo sé, pero dejó constancia para no pisarnos el trabajo. Si alguien con mucho tiempo libre en sus manos quiere hacerlos antes, solo tiene que escribirme por privado.
Por mi parte no puedo trabajar en italiano, y los ingleses que bajaron con la pelicula parecen
bastante deficientes. En el doblaje también me parece que produjeron ciertos milagros, porque al sincronizar el audio
me dio bastante dificultad darme cuenta que una palabra tan insignificante como "comendatore", fue eliminada.
“Si no lees los periódicos estás desinformado”.
Y si los lees estás mal informado”.
Denzel Washington.

Avatar de Usuario
professor keller
 
Mensajes: 4851
Registrado: 03 Oct 2012 10:07
Agradecido : 333 veces
Agradecimiento recibido: 1577 veces

Re: Macchie Solari (Armando Crispino, 1975) BRRip Dual

Mensaje por professor keller » 08 Abr 2021 20:14

locotus escribió:
08 Abr 2021 19:42
professor keller escribió:
08 Abr 2021 19:33
Gracias, Locotus. Yo anuncié hace poco que estoy con estos subtítulos. Cuando iré a terminarlos, no lo sé, pero dejó constancia para no pisarnos el trabajo. Si alguien con mucho tiempo libre en sus manos quiere hacerlos antes, solo tiene que escribirme por privado.
Por mi parte no puedo trabajar en italiano, y los ingleses que bajaron con la pelicula parecen
bastante deficientes. En el doblaje también me parece que produjeron ciertos milagros, porque al sincronizar el audio
me dio bastante dificultad darme cuenta que una palabra tan insignificante como "comendatore", fue eliminada.

Hola, Locotus. Yo traduzco directo del diálogo italiano. Además de mi falta de tiempo libre actual, de ahí viene la demora: traduzco de oído y sincronizo línea por línea, debido justamente a que los subs ingleses son deficientes.
¿Quiere acosar a los usuarios pero no sabe cómo? ¡Consígase un CAZATROLS y acose sin culpas por todas partes!

Avatar de Usuario
tuscarola
 
Mensajes: 2552
Registrado: 25 Dic 2012 20:38
Ubicación: En el Tarragonés
Agradecido : 872 veces
Agradecimiento recibido: 920 veces

Re: Macchie Solari (Armando Crispino, 1975) BRRip Dual

Mensaje por tuscarola » 10 Abr 2021 10:23

Merci locotus por esta nueva e interesante propuesta.
ImagenImagen
Imagen

Responder

Volver a “Largos Modernos”