Página 1 de 1

Contro 4 bandiere (Umberto Lenzi, 1979) DVDRip Quintual SE-Ger

Publicado: 14 Sep 2020, 07:26
por DCINE
De Dunquerque a la victoria
(Contro 4 bandiere)

1979

Imagen


AKA: De l'enfer à la victoire/From Hell to Victory/Nur drei kamen durch

DIRECTOR: Umberto Lenzi
PRODUCTORA: Coproducción Italia-España-Francia; Jose Frade, Les Films Princesse, Les Productions Jacques Roitfeld, New Films
GUIÓN: Gianfranco Clerici, Anthony Fritz, Umberto Lenzi, José Luis Martínez Molla
MÚSICA: Riz Ortolani
FOTOGRAFÍA: José Luis Alcaine


ImagenImagenImagen


ARGUMENTO Un grupo de amigos celebran una cena que tiene un carácter anual. Pero no cuentan con el comienzo de la Segunda Guerra Mundial, que los separará en distintos bandos. Unos estarán en el ejército alemán, otros combaten junto a la resistencia. Acabada la guerra, sólo tres de los amigos acuden a su cita anual. (FILMAFFINITY) IMDB: https://www.imdb.com/title/tt0079019/





Reparto: George Peppard, George Hamilton, Horst Buchholz, Anny Duperey, Jean-Pierre Cassel, Capucine, Sam Wanamaker, Lambert Wilson, Michel Voletti, Antonio Mayans, Howard Vernon, Raymond Lovelock, Georges Claisse, May Heatherly, Franco Fantasia, Fortunato Arena, Stelio Candelli, Vincent Gentile, Sergio Testori, Ángel Aranda



Datos técnicos

Fuente: Ripeo sobre un DVDFull procedente de rutracker

¿V.O.?: Como es habitual en este tipo de producciones, no hay V.O. como tal

Doblajes:

Español: El del estreno en cines de 1979: De una grabación de un pase de TRECE.

Italiano: El de su estreno en cines en 1979, De un TVRip encontrado en emule

Francés: El de su estreno en cines en 1979, De un ripeo encontrado en internet

Inglés: Realizado en 1979. Incluido en el DVDFull

Alemán: El de su estreno en cines en 1979. Incluido en el DVDFull


Subtítulos:
Españoles: para sordos, procedentes de una copia que grabé hace tiempo de un pase de TVE-2.
Alemanes: en formato SubRip procedentes de opensubtitles y en VobSub del DVDFull.

Código: Seleccionar todo

General:
Complete name                    : 1979 De Dunquerque a la victoria (Contro 4 bandiere, From Hell to Victory) (Lenzi) DVDRip (Spa (Doblaje Cines 1979)-Ita-Fre-Eng-Ger) SE-Ger by DCINE.mkv
Format                           : Matroska
Format version                   : Version 4 / Version 2
File size                        : 2.31 GiB
Duration                         : 1h 38mn
Overall bit rate                 : 3 365 Kbps
Movie name                       : 1979 De Dunquerque a la victoria/Contro 4 bandiere/De l'enfer à la victoire/From Hell to Victory/Nur drei kamen durch (Umberto Lenzi, 1979) DVDRip Quintual (Spa (Doblaje Cines 1979)-Ita (Doppiaggio originale 1979)-Fre (Doublage original 1979)-Eng (Dubbing original 1979)-Ger (Synchronisation von 1979)) SE-Ger by DCINE.mkv
Encoded date                     : UTC 2020-09-13 06:08:25
Writing application              : mkvmerge v7.1.0 ('Good Love') 32bit built on Jul 27 2014 12:59:18
Writing library                  : libebml v1.3.0 + libmatroska v1.4.1
_STATISTICS_WRITING_APP          : mkvmerge v7.1.0 ('Good Love') 32bit built on Jul 27 2014 12:59:18
_STATISTICS_WRITING_DATE_UTC     : 2020-09-13 06:08:25
_STATISTICS_TAGS                 : BPS DURATION NUMBER_OF_FRAMES NUMBER_OF_BYTES
DURATION                         : 01:36:42.194000000
NUMBER_OF_FRAMES                 : 912
NUMBER_OF_BYTES                  : 33135

Video
ID                               : 1
Format                           : AVC
Format/Info                      : Advanced Video Codec
Format profile                   : High@L4.1
Format settings, CABAC           : Yes
Format settings, ReFrames        : 16 frames
Codec ID                         : V_MPEG4/ISO/AVC
Duration                         : 1h 38mn
Bit rate                         : 2 338 Kbps
Width                            : 716 pixels
Height                           : 434 pixels
Display aspect ratio             : 2.35:1
Frame rate mode                  : Variable
Frame rate                       : 25.000 fps
Color space                      : YUV
Chroma subsampling               : 4:2:0
Bit depth                        : 8 bits
Scan type                        : Progressive
Bits/(Pixel*Frame)               : 0.301
Stream size                      : 1.61 GiB (69%)
Writing library                  : x264 core 155 r2901 7d0ff22
Encoding settings                : cabac=1 / ref=16 / deblock=1:0:0 / analyse=0x3:0x133 / me=umh / subme=10 / psy=1 / psy_rd=1.00:0.00 / mixed_ref=1 / me_range=24 / chroma_me=1 / trellis=2 / 8x8dct=1 / cqm=0 / deadzone=21,11 / fast_pskip=1 / chroma_qp_offset=-2 / threads=3 / lookahead_threads=1 / sliced_threads=0 / nr=0 / decimate=1 / interlaced=0 / bluray_compat=0 / constrained_intra=0 / bframes=8 / b_pyramid=2 / b_adapt=2 / b_bias=0 / direct=3 / weightb=1 / open_gop=0 / weightp=2 / keyint=250 / keyint_min=25 / scenecut=40 / intra_refresh=0 / rc_lookahead=60 / rc=crf / mbtree=1 / crf=18.0 / qcomp=0.60 / qpmin=0 / qpmax=69 / qpstep=4 / vbv_maxrate=62500 / vbv_bufsize=78125 / crf_max=0.0 / nal_hrd=none / filler=0 / ip_ratio=1.40 / aq=1:1.00
Default                          : Yes
Forced                           : No
_STATISTICS_WRITING_APP          : mkvmerge v7.1.0 ('Good Love') 32bit built on Jul 27 2014 12:59:18
_STATISTICS_WRITING_DATE_UTC     : 2020-09-13 06:08:25
_STATISTICS_TAGS                 : BPS DURATION NUMBER_OF_FRAMES NUMBER_OF_BYTES
DURATION                         : 01:38:28.520000000
NUMBER_OF_FRAMES                 : 147712
NUMBER_OF_BYTES                  : 1772869707
Color primaries                  : BT.470-6 System B, BT.470-6 System G, BT.601-6 625, BT.1358 625, BT.1700 625 PAL, BT.1700 625 SECAM
Transfer characteristics         : BT.709-5, BT.1361
Matrix coefficients              : BT.601-6 525, BT.1358 525, BT.1700 NTSC, SMPTE 170M

Audio #1
ID                               : 2
Format                           : AC-3
Format/Info                      : Audio Coding 3
Mode extension                   : CM (complete main)
Codec ID                         : A_AC3
Duration                         : 1h 38mn
Bit rate mode                    : Constant
Bit rate                         : 192 Kbps
Channel(s)                       : 1 channel
Channel positions                : Front: C
Sampling rate                    : 48.0 KHz
Bit depth                        : 16 bits
Compression mode                 : Lossy
Stream size                      : 135 MiB (6%)
Title                            : Doblaje Cines 1979
Language                         : Spanish
Default                          : Yes
Forced                           : No

Audio #2
ID                               : 3
Format                           : AC-3
Format/Info                      : Audio Coding 3
Mode extension                   : CM (complete main)
Codec ID                         : A_AC3
Duration                         : 1h 38mn
Bit rate mode                    : Constant
Bit rate                         : 192 Kbps
Channel(s)                       : 1 channel
Channel positions                : Front: C
Sampling rate                    : 48.0 KHz
Bit depth                        : 16 bits
Compression mode                 : Lossy
Stream size                      : 135 MiB (6%)
Title                            : Doppiaggio originale 1979
Language                         : Italian
Default                          : No
Forced                           : No

Audio #3
ID                               : 4
Format                           : AC-3
Format/Info                      : Audio Coding 3
Mode extension                   : CM (complete main)
Codec ID                         : A_AC3
Duration                         : 1h 38mn
Bit rate mode                    : Constant
Bit rate                         : 192 Kbps
Channel(s)                       : 1 channel
Channel positions                : Front: C
Sampling rate                    : 48.0 KHz
Bit depth                        : 16 bits
Compression mode                 : Lossy
Stream size                      : 135 MiB (6%)
Title                            : Doublage original 1979
Language                         : French
Default                          : No
Forced                           : No
_STATISTICS_WRITING_APP          : mkvmerge v7.1.0 ('Good Love') 32bit built on Jul 27 2014 12:59:18
_STATISTICS_WRITING_DATE_UTC     : 2020-09-13 06:08:25
_STATISTICS_TAGS                 : BPS DURATION NUMBER_OF_FRAMES NUMBER_OF_BYTES
DURATION                         : 01:36:42.194000000
NUMBER_OF_FRAMES                 : 912
NUMBER_OF_BYTES                  : 961915

Audio #4
ID                               : 5
Format                           : AC-3
Format/Info                      : Audio Coding 3
Mode extension                   : CM (complete main)
Codec ID                         : A_AC3
Duration                         : 1h 38mn
Bit rate mode                    : Constant
Bit rate                         : 192 Kbps
Channel(s)                       : 1 channel
Channel positions                : Front: C
Sampling rate                    : 48.0 KHz
Bit depth                        : 16 bits
Compression mode                 : Lossy
Stream size                      : 135 MiB (6%)
Title                            : Dubbing original 1979
Language                         : English
Default                          : No
Forced                           : No

Audio #5
ID                               : 6
Format                           : AC-3
Format/Info                      : Audio Coding 3
Mode extension                   : CM (complete main)
Codec ID                         : A_AC3
Duration                         : 1h 38mn
Bit rate mode                    : Constant
Bit rate                         : 192 Kbps
Channel(s)                       : 1 channel
Channel positions                : Front: C
Sampling rate                    : 48.0 KHz
Bit depth                        : 16 bits
Compression mode                 : Lossy
Stream size                      : 135 MiB (6%)
Title                            : Synchronisation von 1979
Language                         : German
Default                          : No
Forced                           : No

Text #1
ID                               : 7
Format                           : UTF-8
Codec ID                         : S_TEXT/UTF8
Codec ID/Info                    : UTF-8 Plain Text
Title                            : Sordos
Language                         : Spanish
Default                          : No
Forced                           : No

Text #2
ID                               : 8
Format                           : UTF-8
Codec ID                         : S_TEXT/UTF8
Codec ID/Info                    : UTF-8 Plain Text
Title                            : SubRip
Language                         : German
Default                          : No
Forced                           : No

Text #3
ID                               : 9
Format                           : VobSub
Muxing mode                      : zlib
Codec ID                         : S_VOBSUB
Codec ID/Info                    : The same subtitle format used on DVDs
Title                            : VobSub
Language                         : German
Default                          : No
Forced                           : No

Menu #1
00:00:00.080                     : :Chapter 1
00:02:15.480                     : :Chapter 2
00:11:34.000                     : :Chapter 3
00:19:49.480                     : :Chapter 4
00:32:23.240                     : :Chapter 5
00:45:38.640                     : :Chapter 6
00:56:38.560                     : :Chapter 7
01:08:39.160                     : :Chapter 8
01:20:30.680                     : :Chapter 9
01:32:01.760                     : :Chapter 10
01:36:59.280                     : :Chapter 11

Menu #2
00:00:00.080                     : en:Chapter 01
00:02:15.480                     : en:Chapter 02
00:11:34.000                     : en:Chapter 03
00:19:49.480                     : en:Chapter 04
00:32:23.240                     : en:Chapter 05
00:45:38.640                     : en:Chapter 06
00:56:38.560                     : en:Chapter 07
01:08:39.160                     : en:Chapter 08
01:20:30.680                     : en:Chapter 09
01:32:01.760                     : en:Chapter 10
01:36:59.280                     : en:Chapter 11


Capturas:

Imagen Imagen
Imagen Imagen
Imagen Imagen
Imagen Imagen
Imagen Imagen





Re: Contro 4 bandiere (Umberto Lenzi, 1979) DVDRip Quintual SE-Ger

Publicado: 14 Sep 2020, 08:41
por jorobado7
magnífico aporte DCINE, gracias.

Re: Contro 4 bandiere (Umberto Lenzi, 1979) DVDRip Quintual SE-Ger

Publicado: 14 Sep 2020, 10:03
por tuscarola
Otro trabajo bien hecho. Merci DCINE.

Re: Contro 4 bandiere (Umberto Lenzi, 1979) DVDRip Quintual SE-Ger

Publicado: 14 Sep 2020, 14:10
por yojimbo
Muchas gracias, DCINE.

Re: Contro 4 bandiere (Umberto Lenzi, 1979) DVDRip Quintual SE-Ger

Publicado: 14 Sep 2020, 18:03
por Graveland
Muchas gracias, DCINE.

Re: Contro 4 bandiere (Umberto Lenzi, 1979) DVDRip Quintual SE-Ger

Publicado: 14 Sep 2020, 18:56
por hdjzgz
Gracias. :hi:
Como DCINE siempre monta unos hilos muy completos, he recordado que tenía un reportaje del rodaje en Madrid de esta pelicula. Asi que lo dejo por aqui como complemento y sobre todo como curiosidad.

Imagen

Imagen
Revista "Chisss" año 1978

Re: Contro 4 bandiere (Umberto Lenzi, 1979) DVDRip Quintual SE-Ger

Publicado: 14 Sep 2020, 21:10
por tonapar1
Muchas gracias por el ripeo a dcine. Un saludo.

Re: Contro 4 bandiere (Umberto Lenzi, 1979) DVDRip Quintual SE-Ger

Publicado: 15 Sep 2020, 15:25
por Alfredin
Joder,la vi de chaval, me encantó... recuerdo que el trailer era larguísimo.

Re: Contro 4 bandiere (Umberto Lenzi, 1979) DVDRip Quintual SE-Ger

Publicado: 20 Sep 2020, 23:35
por viejtigr51
Muchas gracias.