The Gambler (Karel Reisz, 1974) WEBRip 1080p Dual SE

Puntuación
6,7/10
3 votos

El jugador

Moderador: Monsieur Lange

Responder
Avatar de Usuario
Juramentado
 
Mensajes: 1625
Registrado: 16 Oct 2012, 20:58
Agradecido : 395 veces
Agradecimiento recibido: 576 veces

Estados Unidos The Gambler (Karel Reisz, 1974) WEBRip 1080p Dual SE

Mensaje por Juramentado » 03 Abr 2020, 16:27


El jugador

Imagen




Imagen Imagen Imagen
The Gambler / El jugador (1974)
111 min EE.UU. Crime, Drama
Director:
Karel Reisz
Guión:
James Toback
Productor:
Robert Chartoff
Música:
Irwin Winkler
Fotografía:
Jerry Fielding
Reparto: James Caan, Paul Sorvino, Lauren Hutton, Morris Carnovsky

Sinopsis:

Alex Freed (James Caan) es profesor de literatura, pero a la vez adicto al juego. Ha perdido todo su dinero y tiene que pedir prestado para seguir jugando... porque no puede parar.


Datos técnicos:


Información adicional:

Doblaje mp3 de Gabol , subtítulos ingleses y españoles de la red.


Capturas:




Datos técnicos
Spoiler:
General
Unique ID : 158156848712232754178090224152786125914 (0x76FBE6AD78F9373E64A382C2CFC2445A)
Complete name : C:\The.Gambler.1974.1080p.AMZN.WEBRip.DD2.0.x264-monkee Dual.mkv
Format : Matroska
Format version : Version 4 / Version 2
File size : 11.5 GiB
Duration : 1h 50mn
Overall bit rate mode : Variable
Overall bit rate : 14.9 Mbps
Encoded date : UTC 2020-04-01 17:42:45
Writing application : mkvmerge v44.0.0 ('Domino') 32-bit
Writing library : libebml v1.3.10 + libmatroska v1.5.2

Video
ID : 1
Format : AVC
Format/Info : Advanced Video Codec
Format profile : High@L4
Format settings, CABAC : Yes
Format settings, ReFrames : 4 frames
Codec ID : V_MPEG4/ISO/AVC
Duration : 1h 50mn
Bit rate mode : Variable
Bit rate : 14.5 Mbps
Maximum bit rate : 15.0 Mbps
Width : 1 920 pixels
Height : 1 080 pixels
Display aspect ratio : 16:9
Frame rate mode : Constant
Frame rate : 23.976 (24000/1001) fps
Color space : YUV
Chroma subsampling : 4:2:0
Bit depth : 8 bits
Scan type : Progressive
Bits/(Pixel*Frame) : 0.292
Stream size : 11.2 GiB (97%)
Title : The Gambler (1974)
Writing library : x264 core 148 r2623 d5b2374
Encoding settings : cabac=1 / ref=4 / deblock=1:-1:-1 / analyse=0x3:0x133 / me=umh / subme=9 / psy=1 / psy_rd=1.00:0.15 / mixed_ref=1 / me_range=24 / chroma_me=1 / trellis=2 / 8x8dct=1 / cqm=0 / deadzone=21,11 / fast_pskip=1 / chroma_qp_offset=-3 / threads=34 / lookahead_threads=5 / sliced_threads=0 / nr=150 / decimate=1 / interlaced=0 / bluray_compat=0 / constrained_intra=0 / bframes=8 / b_pyramid=2 / b_adapt=2 / b_bias=0 / direct=3 / weightb=1 / open_gop=0 / weightp=2 / keyint=120 / keyint_min=61 / scenecut=0 / intra_refresh=0 / rc_lookahead=120 / rc=crf / mbtree=1 / crf=18.0 / qcomp=0.60 / qpmin=0 / qpmax=69 / qpstep=4 / vbv_maxrate=15000 / vbv_bufsize=31250 / crf_max=0.0 / nal_hrd=vbr / filler=0 / ip_ratio=1.40 / aq=3:1.00
Default : Yes
Forced : No
Color range : Limited
Color primaries : BT.709
Transfer characteristics : BT.709
Matrix coefficients : BT.709

Audio #1
ID : 2
Format : E-AC-3
Format/Info : Audio Coding 3
Format settings, Endianness : Big
Codec ID : A_EAC3
Duration : 1h 50mn
Bit rate mode : Constant
Bit rate : 224 Kbps
Channel(s) : 2 channels
Channel positions : Front: L R
Sampling rate : 48.0 KHz
Frame rate : 187.500 fps (256 spf)
Compression mode : Lossy
Stream size : 178 MiB (2%)
Title : English
Language : English
Default : Yes
Forced : No

Audio #2
ID : 3
Format : MPEG Audio
Format version : Version 1
Format profile : Layer 3
Codec ID : A_MPEG/L3
Codec ID/Hint : MP3
Duration : 1h 50mn
Bit rate mode : Constant
Bit rate : 160 Kbps
Channel(s) : 2 channels
Sampling rate : 48.0 KHz
Frame rate : 41.667 fps (1152 spf)
Compression mode : Lossy
Stream size : 127 MiB (1%)
Title : spa
Language : Spanish
Default : No
Forced : No

Text #1
ID : 4
Format : UTF-8
Codec ID : S_TEXT/UTF8
Codec ID/Info : UTF-8 Plain Text
Duration : 1h 50mn
Bit rate : 49 bps
Count of elements : 1108
Stream size : 40.3 KiB (0%)
Title : spa
Language : Spanish
Default : Yes
Forced : No

Text #2
ID : 5
Format : UTF-8
Codec ID : S_TEXT/UTF8
Codec ID/Info : UTF-8 Plain Text
Duration : 1h 46mn
Bit rate : 53 bps
Count of elements : 1142
Stream size : 41.6 KiB (0%)
Title : eng
Language : English
Default : No
Forced : No

Text #3
ID : 6
Format : UTF-8
Codec ID : S_TEXT/UTF8
Codec ID/Info : UTF-8 Plain Text
Duration : 1h 47mn
Bit rate : 58 bps
Count of elements : 1202
Stream size : 46.5 KiB (0%)
Title : English CC
Language : English
Default : No
Forced : No



eD2K link The Gambler 1080p WEB Dual
Última edición por Juramentado el 03 Abr 2020, 20:34, editado 1 vez en total.

Avatar de Usuario
eulsus
 
Mensajes: 2151
Registrado: 08 Abr 2015, 01:14
Ubicación: La Palma
Agradecido : 2528 veces
Agradecimiento recibido: 3135 veces

Re: The Gambler (Karel Reisz, 1974) WEBRip 1080p Dual SE

Mensaje por eulsus » 03 Abr 2020, 19:19

Buena película, Juramentado. :aplauso: :aplauso:

Revisa las capturas, porque no se corresponden con el ripeo. ;)
Imagen
Antonio García-Trevijano Forte (1927-2018)
"Para que yo sea libre, todos tienen que ser libres"

Abstención activa hasta que haya Libertad Colectiva

Avatar de Usuario
Arthur James Hamp
 
Mensajes: 2293
Registrado: 06 May 2016, 11:47
Ubicación: Canet de Berenguer (Valencia)
Agradecido : 3400 veces
Agradecimiento recibido: 3777 veces

Re: The Gambler (Karel Reisz, 1974) WEBRip 1080p Dual SE

Mensaje por Arthur James Hamp » 03 Abr 2020, 20:26

Muchas gracias. :genial: :aplauso: :aplauso:
¿Cómo sabes si la Tierra no es más que el infierno de otro planeta? (Aldous Huxley)

Avatar de Usuario
Juramentado
 
Mensajes: 1625
Registrado: 16 Oct 2012, 20:58
Agradecido : 395 veces
Agradecimiento recibido: 576 veces

Re: The Gambler (Karel Reisz, 1974) WEBRip 1080p Dual SE

Mensaje por Juramentado » 03 Abr 2020, 20:35

eulsus escribió:
03 Abr 2020, 19:19
Buena película, Juramentado. :aplauso: :aplauso:

Revisa las capturas, porque no se corresponden con el ripeo. ;)
Corregidas. Ha debido pasar algo con postimage, las ha redimensionado.

Avatar de Usuario
gatatitania
 
Mensajes: 4790
Registrado: 16 Oct 2012, 18:27
Ubicación: Gatatitania es un gato hambriento, superviviente del planeta gatatitania...
Agradecido : 2525 veces
Agradecimiento recibido: 1483 veces

Re: The Gambler (Karel Reisz, 1974) WEBRip 1080p Dual SE

Mensaje por gatatitania » 03 Abr 2020, 21:37

¡Gracias, Juramentado! ¡Renuevo copia! :drinks: :drinks: :drinks:

ostrata
 
Mensajes: 572
Registrado: 29 Dic 2012, 14:20
Agradecido : 104 veces
Agradecimiento recibido: 238 veces

Re: The Gambler (Karel Reisz, 1974) WEBRip 1080p Dual SE

Mensaje por ostrata » 03 Abr 2020, 22:28

Gracias. :)

Saludos.,

joramor
 
Mensajes: 142
Registrado: 28 Nov 2012, 20:59
Agradecido : 537 veces
Agradecimiento recibido: 28 veces

Re: The Gambler (Karel Reisz, 1974) WEBRip 1080p Dual SE

Mensaje por joramor » 04 Abr 2020, 00:11

Muchas gracias juramentado. Salu2.

Avatar de Usuario
Monsieur Lange
 
Mensajes: 4725
Registrado: 13 Sep 2012, 19:39
Ubicación: Cruzando las dunas
Agradecido : 1535 veces
Agradecimiento recibido: 1652 veces

Re: The Gambler (Karel Reisz, 1974) WEBRip 1080p Dual SE

Mensaje por Monsieur Lange » 04 Abr 2020, 00:59

Muchas gracias juramentado. ¡Profesor de Literatura... jugador...!
Esto promete. :hi:
"Adaptar no es recalentar la comida"
Alain Resnais

ciberyago
 
Mensajes: 2375
Registrado: 20 Oct 2012, 07:26
Agradecimiento recibido: 371 veces

Re: The Gambler (Karel Reisz, 1974) WEBRip 1080p Dual SE

Mensaje por ciberyago » 04 Abr 2020, 05:24

Muchas gracias!

jorobado7
 
Mensajes: 2097
Registrado: 16 Oct 2012, 15:08
Agradecido : 628 veces
Agradecimiento recibido: 2822 veces

Re: The Gambler (Karel Reisz, 1974) WEBRip 1080p Dual SE

Mensaje por jorobado7 » 04 Abr 2020, 08:58

muchas gracias juramentado...

Responder

Volver a “Largos Modernos”