Le Crabe-Tambour (Pierre Schoendoerffer, 1977) BDRip 720p VOSI/F

Puntuación
Sin
puntuar

Moderador: Monsieur Lange

Responder
firejuice
 
Mensajes: 77
Registrado: 25 Oct 2013, 14:16
Agradecido : 69 veces
Agradecimiento recibido: 241 veces

Francia Le Crabe-Tambour (Pierre Schoendoerffer, 1977) BDRip 720p VOSI/F

Mensaje por firejuice » 18 Mar 2020, 11:06

Le Crabe-Tambour (Pierre Schoendoerffer, 1977)

Imagen
IMDB
Año de producción: 1977
País: Imagen
Dirección: Pierre Schoendoerffer
Intérpretes: Jean Rochefort, Claude Rich, Aurore Clément, Odile Versois, Pierre Rousseau, Jacques Perrin
Guión: Pierre Schoendoerffer, Jean-François Chauvel
Música: Philippe Sarde
Fotografía: Raoul Coutard
Duración: 2 horas 0 minutos.
Género: Aventuras. Bélico

Impulsado por el remordimiento, el capitán de una veterana fragata francesa viaja hasta un mar remoto para encontrar a Le crab tambour, un joven alsalciano que combatió con enorme coraje tanto en Indochina como en la revuelta de los generales en Argelia, al cual no ayudó para no arriesgar su carrera cuando una oscura acusación fue lanzada en contra del héroe alsaciano, la cual le valió el destierro. (FILMAFFINITY)

Código: Seleccionar todo

Format                                   : Matroska
Format version                           : Version 4 / Version 2
File size                                : 6.26 GiB
Duration                                 : 2h 0mn
Overall bit rate                         : 7 432 Kbps
Encoded date                             : UTC 2020-03-18 09:27:41
Writing application                      : mkvmerge v6.5.0 ('Isn't she lovely') built on Oct 20 2013 12:50:05
Writing library                          : libebml v1.3.0 + libmatroska v1.4.1

Video
ID                                       : 1
Format                                   : AVC
Format/Info                              : Advanced Video Codec
Format profile                           : High@L4.1
Format settings, CABAC                   : Yes
Format settings, ReFrames                : 9 frames
Codec ID                                 : V_MPEG4/ISO/AVC
Duration                                 : 2h 0mn
Bit rate                                 : 6 516 Kbps
Width                                    : 1 192 pixels
Height                                   : 720 pixels
Display aspect ratio                     : 1.656
Frame rate mode                          : Constant
Frame rate                               : 24.000 fps
Color space                              : YUV
Chroma subsampling                       : 4:2:0
Bit depth                                : 8 bits
Scan type                                : Progressive
Bits/(Pixel*Frame)                       : 0.316
Stream size                              : 5.49 GiB (88%)
Writing library                          : x264 core 129 r2245+729M 1a52e03
Encoding settings                        : cabac=1 / ref=9 / deblock=1:-1:-1 / analyse=0x3:0x133 / me=umh / subme=10 / psy=1 / fade_compensate=0.00 / psy_rd=1.00:0.15 / mixed_ref=1 / me_range=24 / chroma_me=1 / trellis=2 / 8x8dct=1 / cqm=0 / deadzone=21,11 / fast_pskip=1 / chroma_qp_offset=-3 / threads=6 / lookahead_threads=1 / sliced_threads=0 / nr=0 / decimate=1 / interlaced=0 / bluray_compat=0 / constrained_intra=0 / fgo=0 / bframes=8 / b_pyramid=2 / b_adapt=2 / b_bias=0 / direct=3 / weightb=1 / open_gop=0 / weightp=2 / keyint=250 / keyint_min=24 / scenecut=40 / intra_refresh=0 / rc_lookahead=60 / rc=crf / mbtree=1 / crf=19.0 / qcomp=0.60 / qpmin=0 / qpmax=69 / qpstep=4 / ip_ratio=1.40 / aq=1:1.00
Language                                 : English
Default                                  : Yes
Forced                                   : No

Audio
ID                                       : 2
Format                                   : DTS
Format/Info                              : Digital Theater Systems
Mode                                     : 16
Format settings, Endianness              : Big
Codec ID                                 : A_DTS
Duration                                 : 2h 0mn
Bit rate mode                            : Constant
Bit rate                                 : 768 Kbps
Channel(s)                               : 2 channels
Channel positions                        : Front: L R
Sampling rate                            : 48.0 KHz
Bit depth                                : 24 bits
Compression mode                         : Lossy
Stream size                              : 662 MiB (10%)
Default                                  : Yes
Forced                                   : No

Text #1
ID                                       : 3
Format                                   : UTF-8
Codec ID                                 : S_TEXT/UTF8
Codec ID/Info                            : UTF-8 Plain Text
Default                                  : Yes
Forced                                   : No

Text #2
ID                                       : 4
Format                                   : PGS
Muxing mode                              : zlib
Codec ID                                 : S_HDMV/PGS
Codec ID/Info                            : The same subtitle format used on BDs/HD-DVDs
Default                                  : No
Forced                                   : No

Text #3
ID                                       : 5
Format                                   : PGS
Muxing mode                              : zlib
Codec ID                                 : S_HDMV/PGS
Codec ID/Info                            : The same subtitle format used on BDs/HD-DVDs
Default                                  : No
Forced                                   : No


Imagen
Imagen
Imagen
Imagen
Imagen

:arrow: le.crabe-tambour.1977.720p.bluray.x264.dts.fire.mkv

Avatar de Usuario
Forrest Gump
 
Mensajes: 1481
Registrado: 22 Oct 2012, 09:29
Ubicación: Al este del paraíso.
Agradecido : 3162 veces
Agradecimiento recibido: 962 veces

Re: Le Crabe-Tambour (Pierre Schoendoerffer, 1977) BDRip 720p VOSI/F

Mensaje por Forrest Gump » 18 Mar 2020, 12:18

¡Muchas gracias, fire! :aplauso: :drinks:
Johnny: How many men have you forgotten?
Vienna: As many women as you've remembered.

Avatar de Usuario
ETF
 
Mensajes: 30
Registrado: 25 Jun 2015, 23:44
Agradecido : 113 veces
Agradecimiento recibido: 12 veces

Re: Le Crabe-Tambour (Pierre Schoendoerffer, 1977) BDRip 720p VOSI/F

Mensaje por ETF » 19 Mar 2020, 01:54

Muchas gracias.

joramor
 
Mensajes: 150
Registrado: 28 Nov 2012, 20:59
Agradecido : 584 veces
Agradecimiento recibido: 31 veces

Re: Le Crabe-Tambour (Pierre Schoendoerffer, 1977) BDRip 720p VOSI/F

Mensaje por joramor » 19 Mar 2020, 20:53

Muchas gracias y saludos.

rdeespana
 
Mensajes: 667
Registrado: 06 Dic 2012, 03:30
Agradecido : 2869 veces
Agradecimiento recibido: 401 veces

Re: Le Crabe-Tambour (Pierre Schoendoerffer, 1977) BDRip 720p VOSI/F

Mensaje por rdeespana » 20 Mar 2020, 00:38

Tipo interesante este Schoendoerffer, bastante más que un cineasta: reportero de guerra y aventurero vocacional, con una cierta fijación por el pasado colonial francés desde una óptica nada simplista.
Es una de sus mejores películas.

Avatar de Usuario
boettcher
 
Mensajes: 1616
Registrado: 17 Oct 2012, 12:01
Agradecido : 973 veces
Agradecimiento recibido: 279 veces

Re: Le Crabe-Tambour (Pierre Schoendoerffer, 1977) BDRip 720p VOSI/F

Mensaje por boettcher » 22 Mar 2020, 01:23

Muchas gracias, firejuice :)

Avatar de Usuario
boss0506
 
Mensajes: 748
Registrado: 16 Oct 2012, 17:32
Agradecido : 656 veces
Agradecimiento recibido: 624 veces

Re: Le Crabe-Tambour (Pierre Schoendoerffer, 1977) BDRip 720p VOSI/F

Mensaje por boss0506 » 26 Mar 2020, 15:13

Voy con ella. Muchas gracias.

:hi:

Avatar de Usuario
Graveland
 
Mensajes: 3815
Registrado: 22 Nov 2012, 15:30
Agradecido : 2212 veces
Agradecimiento recibido: 3575 veces

Re: Le Crabe-Tambour (Pierre Schoendoerffer, 1977) BDRip 720p VOSI/F

Mensaje por Graveland » 26 Mar 2020, 18:20

Muchas gracias.

Responder

Volver a “Largos Modernos”