The Big Doll House (Jack Hill 1971) BDRip 1080p VO+SE-I

Puntuación
Sin
puntuar

Moderador: Monsieur Lange

Responder
Avatar de Usuario
snatcher
 
Mensajes: 147
Registrado: 12 Jul 2013, 17:10
Agradecido : 485 veces
Agradecimiento recibido: 403 veces
Contactar:

Estados Unidos The Big Doll House (Jack Hill 1971) BDRip 1080p VO+SE-I

Mensaje por snatcher » 09 Nov 2019, 16:26

Imagen

Imagen

Título original: The Big Doll House
Director: Jack Hill
Año/País: 1971/Estados Unidos-Filipinas
Duración: 95 min
Género: Acción|Drama carcelario|Blaxploitation|Serie B
IMDb

INTÉRPRETES
Pam Grier, Roberta Collins, Judith M. Brown,
Brooke Mills, Pat Woodell, Sid Haig

SINOPSIS
Las prisioneras de una carcel en Filipinas en la cual son sometidas a sádicas torturas
planean una fuga con ayuda de dos hombres. (FILMAFFINITY)


CAPTURAS
Imagen Imagen
Imagen Imagen
Imagen Imagen
Imagen Imagen



Imagen
eD2K link 1971.The.Big.Doll.House.BluRay.1080p.VO-SE-SI.mkv [12.21 Gb] 
eD2K link 1971.The.Big.Doll.House.BluRay.1080p.VO-SE-SI.spa.srt [75.2 Kb] 
eD2K link 1971.The.Big.Doll.House.BluRay.1080p.VO-SE-SI.eng.srt [77.7 Kb] 



DATOS TÉCNICOS
Video: BDRip
Size: 12,21 GB
Codec: h264
Bitrate Variable
Minimun Bitrate: 18.0 Mb/s
Maximum bitrate: 33.8 Mb/s

Ancho (pix) x Alto 1920x1080 (16:9)
Fps: 23,976 fps

Audio #1 Inglés
Codec: AC3 (Dolby Digital)
Bitrate: 448 kbits/seg.
Canales: 2.0
Muestreo: 48.000 kHz

Subtítulos:
Castellano (SRT)
Inglés (SRT)

El mkv ya incluye los subtítulos, también los dejo aparte para a quien les pueda servir ;)
Lo subtítulos los he traducido de los ingleses para sordos, que no recuerdo donde los conseguí ya que el BluRay no lleva subtítulos.
Sincronizados y editados para el ripeo.
La pista de video tal como viene en el bluray, sin tocar, sólo he convertido el audio pcm a ac3

Código: Seleccionar todo

Format                         : Matroska
Format version                 : Version 4 / Version 2
File size                      : 12.2 GiB
Duration                       : 1 h 34 min
Overall bit rate mode          : Variable
Overall bit rate               : 18.4 Mb/s
Encoded date                   : UTC 2019-11-09 14:18:42
Writing application            : mkvmerge v39.0.0 ('In The Waiting Line') 64-bit
Writing library                : libebml v1.3.9 + libmatroska v1.5.2

Video
ID                             : 1
Format                         : AVC
Format/Info                    : Advanced Video Codec
Format profile                 : High@L4.1
Format settings, CABAC         : Yes
Format settings, RefFrames     : 3 frames
Codec ID                       : V_MPEG4/ISO/AVC
Duration                       : 1 h 34 min
Bit rate mode                  : Variable
Bit rate                       : 18.0 Mb/s
Maximum bit rate               : 33.8 Mb/s
Width                          : 1 920 pixels
Height                         : 1 080 pixels
Display aspect ratio           : 16:9
Frame rate mode                : Constant
Frame rate                     : 23.976 (24000/1001) FPS
Standard                       : NTSC
Color space                    : YUV
Chroma subsampling             : 4:2:0
Bit depth                      : 8 bits
Scan type                      : Progressive
Bits/(Pixel*Frame)             : 0.362
Stream size                    : 11.9 GiB (98%)
Title                          : Big.Doll.House.1971.(Untouched).1080p
Language                       : English
Default                        : No
Forced                         : No
Color range                    : Limited
Color primaries                : BT.709
Transfer characteristics       : BT.709
Matrix coefficients            : BT.709

Audio
ID                             : 2
Format                         : AC-3
Format/Info                    : Audio Coding 3
Format settings, Endianness    : Big
Codec ID                       : A_AC3
Duration                       : 1 h 34 min
Bit rate mode                  : Constant
Bit rate                       : 448 kb/s
Channel(s)                     : 2 channels
Channel positions              : Front: L R
Sampling rate                  : 48.0 kHz
Frame rate                     : 31.250 FPS (1536 SPF)
Bit depth                      : 16 bits
Compression mode               : Lossy
Stream size                    : 304 MiB (2%)
Language                       : English
Service kind                   : Complete Main
Default                        : Yes
Forced                         : Yes

Text #1
ID                             : 3
Format                         : UTF-8
Codec ID                       : S_TEXT/UTF8
Codec ID/Info                  : UTF-8 Plain Text
Duration                       : 1 h 34 min
Bit rate                       : 44 b/s
Count of elements              : 1169
Stream size                    : 30.6 KiB (0%)
Language                       : Spanish
Default                        : Yes
Forced                         : Yes

Text #2
ID                             : 4
Format                         : UTF-8
Codec ID                       : S_TEXT/UTF8
Codec ID/Info                  : UTF-8 Plain Text
Duration                       : 1 h 34 min
Bit rate                       : 45 b/s
Count of elements              : 1188
Stream size                    : 31.2 KiB (0%)
Language                       : English
Default                        : No
Forced                         : No




:hi:

jorobado7
 
Mensajes: 2184
Registrado: 16 Oct 2012, 15:08
Agradecido : 651 veces
Agradecimiento recibido: 2895 veces

Re: The Big Doll House (Jack Hill 1971) BDRip 1080p VO+SE-I

Mensaje por jorobado7 » 09 Nov 2019, 17:22

gracias, snatcher... pincho ya.

Avatar de Usuario
tonapar1
 
Mensajes: 4869
Registrado: 16 Oct 2012, 20:19
Agradecido : 1147 veces
Agradecimiento recibido: 1567 veces

Re: The Big Doll House (Jack Hill 1971) BDRip 1080p VO+SE-I

Mensaje por tonapar1 » 10 Nov 2019, 18:03

Muchas gracias por el ripeo y los subs a snatcher. Un saludo.

Avatar de Usuario
yojimbo
 
Mensajes: 10145
Registrado: 18 Oct 2012, 14:25
Agradecido : 10317 veces
Agradecimiento recibido: 2769 veces

Re: The Big Doll House (Jack Hill 1971) BDRip 1080p VO+SE-I

Mensaje por yojimbo » 11 Nov 2019, 13:22

Muchas gracias, snatcher.

Avatar de Usuario
victor1949
 
Mensajes: 1160
Registrado: 17 Oct 2012, 08:13
Ubicación: Palamós / Baix Empodá
Agradecido : 115 veces
Agradecimiento recibido: 181 veces

Re: The Big Doll House (Jack Hill 1971) BDRip 1080p VO+SE-I

Mensaje por victor1949 » 11 Nov 2019, 18:00

Muchísimas grácias, snatcher.

Responder

Volver a “Largos Modernos”