Cop-Out (Pierre Rouve, 1967) BDRip 1080p VO SE

Puntuación
2/10
1 voto

Generación en conflicto (Stranger in the House)

Moderador: Monsieur Lange

Responder
Avatar de Usuario
roisiano
 
Mensajes: 491
Registrado: 16 Oct 2012, 16:36
Ubicación: Al final del río.
Agradecido : 5 veces
Agradecimiento recibido: 2244 veces

Reino Unido Cop-Out (Pierre Rouve, 1967) BDRip 1080p VO SE

Mensaje por roisiano » 08 Nov 2019, 14:49

Generación en conflicto (Stranger in the House) (Cop-Out) (Pierre Rouve, 1967)

Imagen
Imagen
Imagen
Imagen
Filmaffinity | IMDb

Guion: Pierre Rouve (Novela: Georges Simenon)
Música: John Scott
Fotografía: Kenneth Higgins
Reparto: James Mason, Geraldine Chaplin, Bobby Darin, Paul Bertoya, Bryan Stanyon, Ian Ogilvy, Pippa Steel, Clive Morton, Moira Lister, James Hayter, Megs Jenkins, Lisa Daniely, Marjie Lawrence, Michael Danvers-Walker, Ivor Dean
Productora: American Broadcasting Company (ABC) / De Grunwald Productions / Selmur Productions
Género: Drama | Crimen

Sinopsis:
John Sawyer, eminente abogado en el pasado, ha caído en una vida de cinismo y alcoholismo desde que su mujer lo abandonara. Cuando el novio de su hija es acusado de homicidio, Sawyer intenta recuperar el norte de su vida y defender a su yerno. (FILMAFFINITY)


Gracias a quienes compartieron el BD.
Spoiler:
Dadas las (extrañas) circunstancias en las que actualmente parecemos movernos en el mundo p2p (en especial, en lo relativo a los trackers privados), de aquí en adelante haré "agradecimientos genéricos" a quienes compartieron la fuente original y no enlazaré a dicha fuente original en mis posts.
Disculpen las molestias
Detalles de la edición (BD Kino)

Aquí no puedo estar más en desacuerdo que el que hizo la comparativa de las ediciones de BD. La de Kino me parece claramente superior (básicamente porque la otra parece "lavada con lejía" :mrgreen: ), aunque tiene un tono de color algo oscuro de más (corregido parcialmente en el ripeo; tampoco es que la corrección haya sido radical, precisamente; prefiero quedarme corto a pasarme en estos casos :mrgreen: :mrgreen: :mrgreen: ).
Spoiler:
Imagen
Imagen

Imagen
Imagen
------------------------------

Configuración del ripeo (vídeo / audio):

x264:
"C:\x264.exe" --preset veryslow --tune film --crf 19.0 --deblock -2:-2 --level 4.1 --output "C:\mi_ripeo.mkv" "C:\mi_script.avs"

QAAC (para AAC):
qaac -V 127 --ignorelength --adts --no-delay -o

------------------------------



Imagen
Imagen
Imagen
Imagen
Imagen
Imagen
Imagen
Imagen
Imagen
Imagen
Imagen
Imagen

Código: Seleccionar todo

 
Format : Matroska 
Format version : Version 4 
File size : 10.5 GiB 
Duration : 1 h 33 min 
Overall bit rate : 16.1 Mb/s 
Writing application : mkvmerge v38.0.0 ('The Silent Type') 64-bit 
Writing library : libebml v1.3.9 + libmatroska v1.5.2 

Video 
ID : 1 
Format : AVC 
Format/Info : Advanced Video Codec 
Format profile : High@L4.1 
Format settings : CABAC / 4 Ref Frames 
Format settings, CABAC : Yes 
Format settings, Reference frames : 4 frames 
Codec ID : V_MPEG4/ISO/AVC 
Duration : 1 h 33 min 
Bit rate : 15.9 Mb/s 
Width : 1 804 pixels 
Height : 1 080 pixels 
Display aspect ratio : 5:3 
Frame rate mode : Constant 
Frame rate : 23.976 (24000/1001) FPS 
Color space : YUV 
Chroma subsampling : 4:2:0 
Bit depth : 8 bits 
Scan type : Progressive 
Bits/(Pixel*Frame) : 0.340 
Stream size : 10.4 GiB (99%) 
Writing library : x264 core 157 r2969 d4099dd 
Encoding settings : cabac=1 / ref=4 / deblock=1:-2:-2 / analyse=0x3:0x133 / me=umh / subme=10 / psy=1 / psy_rd=1.00:0.15 / mixed_ref=1 / me_range=24 / chroma_me=1 / trellis=2 / 8x8dct=1 / cqm=0 / deadzone=21,11 / fast_pskip=1 / chroma_qp_offset=-3 / threads=6 / lookahead_threads=1 / sliced_threads=0 / nr=0 / decimate=1 / interlaced=0 / bluray_compat=0 / constrained_intra=0 / bframes=8 / b_pyramid=2 / b_adapt=2 / b_bias=0 / direct=3 / weightb=1 / open_gop=0 / weightp=2 / keyint=250 / keyint_min=23 / scenecut=40 / intra_refresh=0 / rc_lookahead=60 / rc=crf / mbtree=1 / crf=19.0 / qcomp=0.60 / qpmin=0 / qpmax=69 / qpstep=4 / ip_ratio=1.40 / aq=1:1.00 
Language : English 
Default : Yes 
Forced : No 

Audio 
ID : 2 
Format : AAC LC 
Format/Info : Advanced Audio Codec Low Complexity 
Codec ID : A_AAC-2 
Duration : 1 h 33 min 
Bit rate : 175 kb/s 
Channel(s) : 2 channels 
Channel layout : L R 
Sampling rate : 48.0 kHz 
Frame rate : 46.875 FPS (1024 SPF) 
Compression mode : Lossy 
Stream size : 118 MiB (1%) 
Language : English 
Writing library : qaac 2.68, CoreAudioToolbox 7.10.9.0
Encoding settings : qaac -V 127 --ignorelength --adts --no-delay -o
VBR min./avg./max. : 4 / 177 / 347 Kb/s. 
Duration.......... : 5629.589 sec., (1h. 33m. 49.589s.)
Default : Yes 
Forced : No 

Text #1 
ID : 3 
Format : UTF-8 
Codec ID : S_TEXT/UTF8 
Codec ID/Info : UTF-8 Plain Text 
Duration : 1 h 30 min 
Bit rate : 69 b/s 
Count of elements : 1391 
Stream size : 46.1 KiB (0%) 
Language : Spanish 
Default : Yes 
Forced : No 

Text #2 
ID : 4 
Format : UTF-8 
Codec ID : S_TEXT/UTF8 
Codec ID/Info : UTF-8 Plain Text 
Duration : 1 h 30 min 
Bit rate : 65 b/s 
Count of elements : 1397 
Stream size : 43.5 KiB (0%) 
Language : English 
Default : No 
Forced : No 

Text #3 
ID : 5 
Format : UTF-8 
Codec ID : S_TEXT/UTF8 
Codec ID/Info : UTF-8 Plain Text 
Duration : 1 h 30 min 
Bit rate : 67 b/s 
Count of elements : 1443 
Stream size : 44.8 KiB (0%) 
Title : English SDH 
Language : English 
Default : No 
Forced : No 

Menu 
00:00:00.000 : en:Cpt. 01 
00:07:52.389 : en:Cpt. 02 
00:18:01.289 : en:Cpt. 03 
00:27:20.305 : en:Cpt. 04 
00:38:46.574 : en:Cpt. 05 
00:52:48.374 : en:Cpt. 06 
01:03:44.070 : en:Cpt. 07 
01:18:09.602 : en:Cpt. 08



:arrow: BDRip V.O. 1080p, con subtítulos en español e inglés en el contenedor MKV (10.53 GBs)

:arrow: Subtítulos por separado
, por si alguien los necesita para... (110 KBs)


Los subtítulos en español son los traducidos por hammett, con la garantía de calidad que eso supone (muchas gracias, una vez más), a partir de unos English subs de la edición BFI previamente resincronizados para este BDRip.




:arrow: Cómo buscar archivos en emule. Necesario para buscar lo anterior...





----------------------------------------------------


Imagen Imagen

Última versión del codec x264 (inglés) | Cómo crear BDRips MKV/x264 con UsEac3To + MeGui (español)
Manual de ripeo con x264 en línea de comandos (español) (1) (2) (3) | Parámetros de codificación (inglés)
Matroska en wikipedia (español) | MKVToolnix, herramientas de edición para matroska (inglés) | Añadir cadenas de audio o subtítulos con MKVToolnix (español)
gMKVExtractGUI (inglés) | MKVExtractGui (inglés) | Manual de extracción de cadenas de audio/vídeo/subtítulos en MKV (español)
Última edición por roisiano el 09 Nov 2019, 00:09, editado 1 vez en total.
A partir de ahora, no contestaré a cuestiones que se me planteen en los foros. Sólo contestaré mensajes privados.
----------------
From now on, I will not answer to messages in the forums. I will only answer private messages.

jorobado7
 
Mensajes: 1820
Registrado: 16 Oct 2012, 15:08
Agradecido : 453 veces
Agradecimiento recibido: 2159 veces

Re: Cop-Out (Pierre Rouve, 1967) BDRip 1080p VO SE

Mensaje por jorobado7 » 08 Nov 2019, 14:50

gracias hammett y roisiano.

rdeespana
 
Mensajes: 474
Registrado: 06 Dic 2012, 03:30
Agradecido : 2185 veces
Agradecimiento recibido: 255 veces

Re: Cop-Out (Pierre Rouve, 1967) BDRip 1080p VO SE

Mensaje por rdeespana » 08 Nov 2019, 17:51

" Aquí no puedo estar más en desacuerdo que el que hizo la comparativa de las ediciones de BD. La de Kino me parece claramente superior "

Comparto tu opinión. Los colores de la versión americana son mucho más "naturales" (de acuerdo con el estilo de la época, quiero decir).
Lo único difícil de concretar es porqué dura diez minutos menos... supongo que para adaptar el montaje a los gustos transatlánticos.

MAMADU
 
Mensajes: 168
Registrado: 11 May 2016, 13:45
Agradecido : 419 veces
Agradecimiento recibido: 63 veces

Re: Cop-Out (Pierre Rouve, 1967) BDRip 1080p VO SE

Mensaje por MAMADU » 09 Nov 2019, 11:22

MUCHAS GRACIAS!!!! Hay que buscarla como "Cop-Out", por cierto ... sino no aparece en el EMULE.
mamadu

Responder

Volver a “Largos Modernos”