She (Robert Day, 1965) DVDRip Multiaudio SE-I

Puntuación
5/10
1 voto

La diosa de fuego (Ella) (Doblaje Cines 1966/TVE 1977/Tele 5 1997/Ita 1966/Ger 1966)

Moderador: Monsieur Lange

Responder
Avatar de Usuario
DCINE
 
Mensajes: 1537
Registrado: 30 Jul 2016, 20:09
Agradecido : 875 veces
Agradecimiento recibido: 2919 veces

Reino Unido She (Robert Day, 1965) DVDRip Multiaudio SE-I

Mensaje por DCINE » 06 Oct 2019, 07:32

La diosa de fuego (Ella)
(She)

1965


Imagen

AKA: La Dea della città perduta/Herrscherin der Wueste

DIRECTOR: Robert Day
PRODUCTORA: Hammer Film Productions / Associated British Picture Corporation (ABPC)
GUIÓN: David T. Chantler (Novela: H. Rider Haggard)
MÚSICA: James Bernard
FOTOGRAFÍA: Harry Waxman



Imagen

Italia
Imagen

Alemania
Imagen

ARGUMENTO Una expedición descubre un mundo perdido en el que el pueblo lleva cientos de años a las órdenes de una reina inmortal, "Ella". Pronto surge el amor entre el joven explorador Leo Vincey y la legendaria soberana, que cree descubrir en el explorador la reencarnación de su ancestral amado Callicrates. (FILMAFFINITY) IMDB: https://www.imdb.com/title/tt0059710/

ImagenImagen




Reparto: Ursula Andress, Peter Cushing, Bernard Cribbins, John Richardson, Rosenda Monteros, Christopher Lee, André Morell, Soraya, Julie Mendez, Lisa Peake, Cherry Larman, Bula Coleman, John Maxim



ImagenImagen



Datos técnicos

Video: Ripeo propio de un DVDFull procedente de 7tor

V.O.: Codificado en AC-3

Doblaje:

Español: se incluyen tres

El de su estreno en 1966. Inédito en la red hasta ahora, rescatado del VHS editado por MGM/UA en 1988, mi agradecimiento a DannyKayeFDob por digitalizarlo. Emitido por TRECE el 06/04/2013.
Al doblaje le faltaba un tramo al principio de la peli de unos 103seg que he parcheado con el de TVE.

El de TVE para su emisión en 1977. También inédito en la red, rescatado gracias a una copia subida a "Padre Logan" por davideomusic73 de su emisión por TVE-1 el 04/09/1995.

El tercero, dicen que realizado para su emisión por Tele5 en 1997. Antes indicaba que era para una emisión de 1994. De un ripeo bajado de emule sin firmar. Este es el que viene en el DVD Español.

Italiano: El de su estreno en 1966. De un ripeo encontrado en emule

Alemán: El de su estreno en 1966. De un ripeo encontrado en emule.

Subtítulos

Completos en español e inglés

Código: Seleccionar todo

General:

Complete name                    : 1965 La diosa de fuego (...del..) (Ella) (She) (Robert Day, 1965) DVDRip (Spa (Doblaje Cines 1966 - TVE 1977 - RD T5 97)-Eng-Ita-Ger) SE-I by DCINE.mkv
Format                           : Matroska
Format version                   : Version 4 / Version 2
File size                        : 2.41 GiB
Duration                         : 1h 45mn
Overall bit rate                 : 3 271 Kbps
Movie name                       : 1965 La diosa de fuego (La diosa del fuego) (Ella)/She/La Dea della città perduta/Herrscherin der Wueste (Robert Day, 1965) DVDRip Multiaudio (Spa (Doblaje Cines 1966/Doblaje TVE 1977/Doblaje Tele 5 1997)-Eng-Ita (Doppiaggio originale 1966)-Ger (Synchronisation von 1966)) SE-I by DCINE.mkv
Encoded date                     : UTC 2019-08-29 14:34:46
Writing application              : mkvmerge v7.1.0 ('Good Love') 32bit built on Jul 27 2014 12:59:18
Writing library                  : libebml v1.3.0 + libmatroska v1.4.1
_STATISTICS_WRITING_APP          : mkvmerge v7.1.0 ('Good Love') 32bit built on Jul 27 2014 12:59:18
_STATISTICS_WRITING_DATE_UTC     : 2019-08-29 14:34:46
_STATISTICS_TAGS                 : BPS DURATION NUMBER_OF_FRAMES NUMBER_OF_BYTES
DURATION                         : 01:41:42.874000000
NUMBER_OF_FRAMES                 : 798
NUMBER_OF_BYTES                  : 31738

Video
ID                               : 1
Format                           : AVC
Format/Info                      : Advanced Video Codec
Format profile                   : High@L4.1
Format settings, CABAC           : Yes
Format settings, ReFrames        : 5 frames
Codec ID                         : V_MPEG4/ISO/AVC
Duration                         : 1h 45mn
Bit rate                         : 2 182 Kbps
Width                            : 718 pixels
Height                           : 364 pixels
Display aspect ratio             : 2.35:1
Original display aspect ratio    : 2.35:1
Frame rate mode                  : Variable
Frame rate                       : 23.976 fps
Color space                      : YUV
Chroma subsampling               : 4:2:0
Bit depth                        : 8 bits
Scan type                        : Progressive
Bits/(Pixel*Frame)               : 0.348
Stream size                      : 1.61 GiB (67%)
Writing library                  : x264 core 155 r2901 7d0ff22
Encoding settings                : cabac=1 / ref=5 / deblock=1:0:0 / analyse=0x3:0x113 / me=hex / subme=8 / psy=1 / psy_rd=1.00:0.00 / mixed_ref=1 / me_range=16 / chroma_me=1 / trellis=2 / 8x8dct=1 / cqm=0 / deadzone=21,11 / fast_pskip=1 / chroma_qp_offset=-2 / threads=3 / lookahead_threads=1 / sliced_threads=0 / nr=0 / decimate=1 / interlaced=0 / bluray_compat=0 / constrained_intra=0 / bframes=3 / b_pyramid=2 / b_adapt=1 / b_bias=0 / direct=3 / weightb=1 / open_gop=0 / weightp=2 / keyint=240 / keyint_min=24 / scenecut=40 / intra_refresh=0 / rc_lookahead=50 / rc=crf / mbtree=1 / crf=18.0 / qcomp=0.60 / qpmin=0 / qpmax=69 / qpstep=4 / vbv_maxrate=62500 / vbv_bufsize=78125 / crf_max=0.0 / nal_hrd=none / filler=0 / ip_ratio=1.40 / aq=1:1.00
Default                          : Yes
Forced                           : No
_STATISTICS_WRITING_APP          : mkvmerge v7.1.0 ('Good Love') 32bit built on Jul 27 2014 12:59:18
_STATISTICS_WRITING_DATE_UTC     : 2019-08-29 14:34:46
_STATISTICS_TAGS                 : BPS DURATION NUMBER_OF_FRAMES NUMBER_OF_BYTES
DURATION                         : 01:45:34.811000000
NUMBER_OF_FRAMES                 : 151883
NUMBER_OF_BYTES                  : 1776965221
Color primaries                  : BT.601-6 525, BT.1358 525, BT.1700 NTSC, SMPTE 170M
Transfer characteristics         : BT.709-5, BT.1361
Matrix coefficients              : BT.601-6 525, BT.1358 525, BT.1700 NTSC, SMPTE 170M

Audio #1
ID                               : 2
Format                           : AC-3
Format/Info                      : Audio Coding 3
Mode extension                   : CM (complete main)
Codec ID                         : A_AC3
Duration                         : 1h 45mn
Bit rate mode                    : Constant
Bit rate                         : 192 Kbps
Channel(s)                       : 2 channels
Channel positions                : Front: L R
Sampling rate                    : 48.0 KHz
Bit depth                        : 16 bits
Compression mode                 : Lossy
Stream size                      : 145 MiB (6%)
Title                            : Doblaje Cines 1966
Language                         : Spanish
Default                          : Yes
Forced                           : No
_STATISTICS_WRITING_APP          : mkvmerge v7.1.0 ('Good Love') 32bit built on Jul 27 2014 12:59:18
_STATISTICS_WRITING_DATE_UTC     : 2019-08-29 14:34:46
_STATISTICS_TAGS                 : BPS DURATION NUMBER_OF_FRAMES NUMBER_OF_BYTES
DURATION                         : 01:45:34.720000000
NUMBER_OF_FRAMES                 : 197960
NUMBER_OF_BYTES                  : 152033280

Audio #2
ID                               : 3
Format                           : MPEG Audio
Format version                   : Version 1
Format profile                   : Layer 2
Codec ID                         : A_MPEG/L2
Codec ID/Hint                    : MP2
Duration                         : 1h 45mn
Bit rate mode                    : Constant
Bit rate                         : 128 Kbps
Channel(s)                       : 2 channels
Sampling rate                    : 48.0 KHz
Compression mode                 : Lossy
Stream size                      : 96.7 MiB (4%)
Title                            : Doblaje TVE 1977
Language                         : Spanish
Default                          : No
Forced                           : No

Audio #3
ID                               : 4
Format                           : MPEG Audio
Format version                   : Version 1
Format profile                   : Layer 3
Mode                             : Joint stereo
Mode extension                   : MS Stereo
Codec ID                         : A_MPEG/L3
Codec ID/Hint                    : MP3
Duration                         : 1h 45mn
Bit rate mode                    : Constant
Bit rate                         : 128 Kbps
Channel(s)                       : 2 channels
Sampling rate                    : 48.0 KHz
Compression mode                 : Lossy
Delay relative to video          : 12ms
Stream size                      : 96.7 MiB (4%)
Title                            : Doblaje Tele 5 1997
Writing library                  : LAME3.100
Language                         : Spanish
Default                          : No
Forced                           : No

Audio #4
ID                               : 5
Format                           : AC-3
Format/Info                      : Audio Coding 3
Mode extension                   : CM (complete main)
Codec ID                         : A_AC3
Duration                         : 1h 45mn
Bit rate mode                    : Constant
Bit rate                         : 192 Kbps
Channel(s)                       : 2 channels
Channel positions                : Front: L R
Sampling rate                    : 48.0 KHz
Bit depth                        : 16 bits
Compression mode                 : Lossy
Stream size                      : 145 MiB (6%)
Title                            : Stereo
Language                         : English
Default                          : No
Forced                           : No

Audio #5
ID                               : 6
Format                           : AC-3
Format/Info                      : Audio Coding 3
Mode extension                   : CM (complete main)
Codec ID                         : A_AC3
Duration                         : 1h 45mn
Bit rate mode                    : Constant
Bit rate                         : 192 Kbps
Channel(s)                       : 2 channels
Channel positions                : Front: L R
Sampling rate                    : 44.1 KHz
Bit depth                        : 16 bits
Compression mode                 : Lossy
Delay relative to video          : 10ms
Stream size                      : 145 MiB (6%)
Title                            : Doppiaggio originale 1966
Language                         : Italian
Default                          : No
Forced                           : No

Audio #6
ID                               : 7
Format                           : AC-3
Format/Info                      : Audio Coding 3
Mode extension                   : CM (complete main)
Codec ID                         : A_AC3
Duration                         : 1h 45mn
Bit rate mode                    : Constant
Bit rate                         : 192 Kbps
Channel(s)                       : 1 channel
Channel positions                : Front: C
Sampling rate                    : 44.1 KHz
Bit depth                        : 16 bits
Compression mode                 : Lossy
Delay relative to video          : 24ms
Stream size                      : 145 MiB (6%)
Title                            : Synchronisation von 1965
Language                         : German
Default                          : No
Forced                           : No

Text #1
ID                               : 8
Format                           : UTF-8
Codec ID                         : S_TEXT/UTF8
Codec ID/Info                    : UTF-8 Plain Text
Language                         : Spanish
Default                          : No
Forced                           : No

Text #2
ID                               : 9
Format                           : UTF-8
Codec ID                         : S_TEXT/UTF8
Codec ID/Info                    : UTF-8 Plain Text
Language                         : English
Default                          : No
Forced                           : No

Menu #1
00:00:00.149                     : :Chapter 1
00:10:01.125                     : :Chapter 2
00:20:01.224                     : :Chapter 3
00:30:01.824                     : :Chapter 4
00:40:02.925                     : :Chapter 5
00:50:03.024                     : :Chapter 6
01:00:04.125                     : :Chapter 7
01:10:04.224                     : :Chapter 8
01:20:04.824                     : :Chapter 9
01:30:05.925                     : :Chapter 10
01:40:06.358                     : :Chapter 11

Menu #2
00:00:00.000                     : en:Chapter 01
00:10:01.100                     : en:Chapter 02
00:20:01.200                     : en:Chapter 03
00:30:01.800                     : en:Chapter 04
00:40:02.900                     : en:Chapter 05
00:50:03.000                     : en:Chapter 06
01:00:04.100                     : en:Chapter 07
01:10:04.200                     : en:Chapter 08
01:20:04.800                     : en:Chapter 09
01:30:05.900                     : en:Chapter 10
01:40:06.200                     : en:Chapter 11


Capturas:


Imagen Imagen
Imagen Imagen
Imagen Imagen
Imagen Imagen
Imagen Imagen



Enlace:

eD2K link 1965 La diosa de fuego (...del..) (Ella) (She) (Robert Day, 1965) DVDRip (Spa (Do...E-I by DCINE.mkv [2.41 Gb] 

DD:

https://drive.google.com/open?id=1WK6oL ... sVdU30YkcB

oskib
 
Mensajes: 609
Registrado: 16 Oct 2012, 17:37
Ubicación: San Nicolás - Argentina
Agradecido : 490 veces
Agradecimiento recibido: 145 veces

Re: She (Robert Day, 1965) DVDRip Multiaudio SE-I

Mensaje por oskib » 06 Oct 2019, 09:09

¡Por fin!!!! Después de tanto hacerse esperar, al fin una muy buena versión de este pequeño clásico Hammer.
Muy agradecido por el aporte DCINE. :yahoo: :aplauso:

jail
 
Mensajes: 6054
Registrado: 18 Oct 2012, 15:34
Agradecido : 6616 veces
Agradecimiento recibido: 1835 veces

Re: She (Robert Day, 1965) DVDRip Multiaudio SE-I

Mensaje por jail » 06 Oct 2019, 10:03

Gracias, DCINE.
El cine SPRING, en Sarríá, ¡qué recuerdos!

jorobado7
 
Mensajes: 1779
Registrado: 16 Oct 2012, 15:08
Agradecido : 437 veces
Agradecimiento recibido: 2057 veces

Re: She (Robert Day, 1965) DVDRip Multiaudio SE-I

Mensaje por jorobado7 » 06 Oct 2019, 10:03

No nos das tregua, DCINE, muchas gracias.

Avatar de Usuario
miguel_HammerFilms
 
Mensajes: 522
Registrado: 16 Oct 2012, 18:23
Agradecido : 211 veces
Agradecimiento recibido: 353 veces

Re: She (Robert Day, 1965) DVDRip Multiaudio SE-I

Mensaje por miguel_HammerFilms » 06 Oct 2019, 13:18

Pinchadísima, y más con esos doblajes recuperados!!!
Muchas gracias DCINE :amo: :amo:
Imagen Nosferatu de Plata, temporada 2011-2012

Avatar de Usuario
yojimbo
 
Mensajes: 8842
Registrado: 18 Oct 2012, 14:25
Agradecido : 8741 veces
Agradecimiento recibido: 2094 veces

Re: She (Robert Day, 1965) DVDRip Multiaudio SE-I

Mensaje por yojimbo » 06 Oct 2019, 13:41

Muchas gracias, DCINE, DannyKayeFDob y davideomusic73.

Avatar de Usuario
tonapar1
 
Mensajes: 4066
Registrado: 16 Oct 2012, 20:19
Agradecido : 1055 veces
Agradecimiento recibido: 1104 veces

Re: She (Robert Day, 1965) DVDRip Multiaudio SE-I

Mensaje por tonapar1 » 06 Oct 2019, 19:19

Muchas gracias por el ripeo y los doblajes a DCINE, DannyKayeFDob y davideomusic73. Aunque ultimamente prefiero la version original subtitulada, agradezco conseguir peliculas con doblajes originales que oi o que no pude disfrutar en su momento.

Avatar de Usuario
sete
 
Mensajes: 4013
Registrado: 22 Dic 2012, 16:10
Agradecido : 143 veces
Agradecimiento recibido: 1104 veces

Re: She (Robert Day, 1965) DVDRip Multiaudio SE-I

Mensaje por sete » 06 Oct 2019, 23:35

Muchas gracias, DCINE, DannyKayeFDob y davideomusic73.
:hi:
Este mundo está traicionando a la vida.
José Luis Sampedro

rdeespana
 
Mensajes: 462
Registrado: 06 Dic 2012, 03:30
Agradecido : 2127 veces
Agradecimiento recibido: 246 veces

Re: She (Robert Day, 1965) DVDRip Multiaudio SE-I

Mensaje por rdeespana » 10 Oct 2019, 15:37

Doblaje:
Español: se incluyen tres
El de su estreno en 1966. Inédito en la red hasta ahora, rescatado del VHS editado por MGM/UA en 1988, mi agradecimiento a DannyKayeFDob por digitalizarlo. Emitido por TRECE el 06/04/2013.
Al doblaje le faltaba un tramo al principio de la peli de unos 103seg que he parcheado con el de TVE.
El de TVE para su emisión en 1977. También inédito en la red, rescatado gracias a una copia subida a "Padre Logan" por davideomusic73 de su emisión por TVE-1 el 04/09/1995.
El tercero, dicen que realizado para su emisión por Tele5 en 1997. Antes indicaba que era para una emisión de 1994. De un ripeo bajado de emule sin firmar. Este es el que viene en el DVD Español.
Italiano: El de su estreno en 1966. De un ripeo encontrado en emule
Alemán: El de su estreno en 1966. De un ripeo encontrado en emule.



¡Qué alarde! ¡Esto es ser un crack!
Al final conseguiréis que me aficione a los doblajes... :aplauso:

Avatar de Usuario
tuscarola
 
Mensajes: 2135
Registrado: 25 Dic 2012, 20:38
Ubicación: En el Tarragonés
Agradecido : 746 veces
Agradecimiento recibido: 795 veces

Re: She (Robert Day, 1965) DVDRip Multiaudio SE-I

Mensaje por tuscarola » 12 Oct 2019, 06:34

Gracias, DCINE.Con esos doblajes nuevos que estaban escondidos.
Imagen
Imagen
Imagen
Imagen
In Memoriam:
Juan Manuel Soriano
Carmen Lombarte
Maribel Casals
Felipe Peña
Alfonso Santigosa
Rafael Navarro

Responder

Volver a “Largos Modernos”