Rebeldes en Canadá (Amando de Ossorio, 1965) HDTV 1080p Dual Esp-Fra+SI

Puntuación
Sin
puntuar

I Tre del Colorado

Moderador: Monsieur Lange

Responder
Avatar de Usuario
OCangaceiro
 
Mensajes: 161
Registrado: 29 Ene 2016, 04:10
Agradecido : 407 veces
Agradecimiento recibido: 429 veces

España Rebeldes en Canadá (Amando de Ossorio, 1965) HDTV 1080p Dual Esp-Fra+SI

Mensaje por OCangaceiro » 16 Sep 2019, 22:27

Rebeldes en Canadá
I Tre del Colorado
(Amando de Ossorio, 1965)

[Imagen

Imagen

Imagen


Año de producción: 1965
País: España/Italia
Dirección: Amando de Ossorio
Intérpretes: George Martin, Diana Lorys, Santiago Rivero, Luis Marín, Giulia Rubini, Pamela Tudor, Franco Fantasia, Raf Baldassarre, Mirko Ellis, Francisco Nieto.
Guión: Amando de Ossorio, Bob Sirens, Jesús Navarro.
Música: Carlo Savina
Fotografía: Fausto Zuccoli
Duración: 1 hora y 20 minutos
Género: Acción, Aventura, Drama, Western.


Sinopsis:

Canadá segunda mitad del siglo XIX. Con el apoyo de los británicos, el tiránico James Sullivan, director de la Compañía de la Bahía de Hudson, impone unas condiciones muy duras a los tramperos en el comercio de pieles, por lo que algunos se declaran en rebeldía. A este grupo se une Víctor, un trampero que, hasta la ejecución de su hermano por los soldados británicos, se había mantenido neutral y que ahora participará en el secuestro de Ann, la hija de James Sullivan. Pero con lo que no contaba es con enamorarse de ella. (FILMAFFINITY)

Comentario

Rebeldes en Canadá es el segundo y último "western" dirigido por el cineasta gallego Amando de Ossorio (el anterior fue "La Tumba del Pistolero"), quien adquirió fama internacional por sus películas de terror (La noche del terror ciego, Malenka, El ataque de los muertos sin ojos, El buque fantasma, La noche de las gaviotas ...).

La película, aunque ambientada en el último cuarto del siglo XIX en Canadá, no refleja ningún hecho histórico canadiense, si bien la trama de los rebeldes recuerda vagamente a las rebeliones de Louis Riel y los métis contra los británicos. Las indumentarias "canadienses" que llevan los actores también parecen muchas veces fuera de lugar. Por ejemplo, el actor George Martin, que encarna al trampero Victor DeFrois, recuerda más por su gorra de piel de mapache (u otro animal o combinación de animales, a mí no me parece un mapache) a los héroes estadounidenses Davy Crockett y Daniel Boone que a un trampero francófono canadiense. Y las camisas de cuadros de los rebeldes se parecen más a la indumentaria de los leñadores ("lumbrejacks" o "loggers") de mediados del siglo XX de la Columbia Británica que a la que llevaban los rebeldes de Riel. Pero dejando ese tipo de detalles a un lado, la película me pareció bastante entretenida y con buenas actuaciones y cinematografía Las escenas de las cargas de la caballería de la policía montada están bastante bien logradas, con montañas nevadas de fondo que, aunque españolas (zona de Navacerrada), podrían muy bien pasar por canadienses. Personalmente, creo que la puntuación de 3.9 en IMDB no le hace justicia, creo que se merece al menos 6 estrellas.

La película la grabé de La 2 HD con audio en castellano y francés. Además le añadí al mkv mis propios subtítulos en inglés (removibles) para que también los angloparlantes puedan disfrutar de ella.



Datos Técnicos

Código: Seleccionar todo

General
Unique ID                                : 60777533432260806566794490231452513681 (0x2DB953C0A5C79CCDFABE20C73E16B591)
Complete name                            : Rebeldes en Canada (1965) HD.mkv
Format                                   : Matroska
Format version                           : Version 4 / Version 2
File size                                : 2.49 GiB
Duration                                 : 1 h 19 min
Overall bit rate                         : 4 473 kb/s
Encoded date                             : UTC 2019-05-20 21:29:28
Writing application                      : mkvmerge v34.0.0 ('Sight and Seen') 64-bit
Writing library                          : libebml v1.3.7 + libmatroska v1.5.0

Video
ID                                       : 2
Format                                   : AVC
Format/Info                              : Advanced Video Codec
Format profile                           : Main@L4
Format settings                          : CABAC / 4 Ref Frames
Format settings, CABAC                   : Yes
Format settings, RefFrames               : 4 frames
Codec ID                                 : V_MPEG4/ISO/AVC
Duration                                 : 1 h 19 min
Bit rate                                 : 4 150 kb/s
Width                                    : 1 810 pixels
Height                                   : 1 076 pixels
Display aspect ratio                     : 5:3
Frame rate mode                          : Variable
Frame rate                               : 25.000 FPS
Color space                              : YUV
Chroma subsampling                       : 4:2:0
Bit depth                                : 8 bits
Scan type                                : Progressive
Bits/(Pixel*Frame)                       : 0.085
Stream size                              : 2.31 GiB (93%)
Writing library                          : x264 core 155 r2901 7d0ff22
Encoding settings                        : cabac=1 / ref=2 / deblock=1:0:0 / analyse=0x1:0x111 / me=hex / subme=6 / psy=1 / psy_rd=1.00:0.00 / mixed_ref=1 / me_range=16 / chroma_me=1 / trellis=1 / 8x8dct=0 / cqm=0 / deadzone=21,11 / fast_pskip=1 / chroma_qp_offset=-2 / threads=6 / lookahead_threads=1 / sliced_threads=0 / nr=0 / decimate=1 / interlaced=0 / bluray_compat=0 / constrained_intra=0 / bframes=3 / b_pyramid=2 / b_adapt=1 / b_bias=0 / direct=1 / weightb=1 / open_gop=0 / weightp=1 / keyint=300 / keyint_min=30 / scenecut=40 / intra_refresh=0 / rc_lookahead=30 / rc=crf / mbtree=1 / crf=22.0 / qcomp=0.60 / qpmin=0 / qpmax=69 / qpstep=4 / vbv_maxrate=20000 / vbv_bufsize=25000 / crf_max=0.0 / nal_hrd=none / filler=0 / ip_ratio=1.40 / aq=1:1.00
Default                                  : Yes
Forced                                   : No
Color range                              : Limited
Color primaries                          : BT.709
Transfer characteristics                 : BT.709
Matrix coefficients                      : BT.709

Audio #1
ID                                       : 3
Format                                   : AC-3
Format/Info                              : Audio Coding 3
Codec ID                                 : A_AC3
Duration                                 : 1 h 19 min
Bit rate mode                            : Constant
Bit rate                                 : 160 kb/s
Channel(s)                               : 2 channels
Channel positions                        : Front: L R
Sampling rate                            : 48.0 kHz
Frame rate                               : 31.250 FPS (1536 SPF)
Bit depth                                : 16 bits
Compression mode                         : Lossy
Stream size                              : 91.1 MiB (4%)
Title                                    : Stereo
Language                                 : Spanish
Service kind                             : Complete Main
Default                                  : Yes
Forced                                   : No

Audio #2
ID                                       : 4
Format                                   : AC-3
Format/Info                              : Audio Coding 3
Codec ID                                 : A_AC3
Duration                                 : 1 h 19 min
Bit rate mode                            : Constant
Bit rate                                 : 160 kb/s
Channel(s)                               : 2 channels
Channel positions                        : Front: L R
Sampling rate                            : 48.0 kHz
Frame rate                               : 31.250 FPS (1536 SPF)
Bit depth                                : 16 bits
Compression mode                         : Lossy
Stream size                              : 91.1 MiB (4%)
Title                                    : Stereo
Language                                 : French
Service kind                             : Complete Main
Default                                  : No
Forced                                   : No

Text
ID                                       : 1
Format                                   : UTF-8
Codec ID                                 : S_TEXT/UTF8
Codec ID/Info                            : UTF-8 Plain Text
Duration                                 : 1 h 19 min
Bit rate                                 : 39 b/s
Count of elements                        : 656
Stream size                              : 22.7 KiB (0%)
Language                                 : English
Default                                  : Yes
Forced                                   : No




Capturas

Imagen

Imagen

Imagen

Imagen

Imagen

Imagen

Imagen

Imagen

Imagen

Imagen

Imagen

Imagen

Imagen

Imagen

Imagen

Imagen

Imagen

Imagen









Enlaces

Película.

eD2K link Rebeldes en Canada (1965) HD.mkv [2.49 Gb] 

Descarga directa (solo durante 48 horas y para ayudar a crear fuentes)

https://mega.nz/#!xhwhSCyI!h75D5u-EBLS3 ... 0bi4Ck8gHk

Que la disfrutéis con salud. :colega: :drinks:

Avatar de Usuario
sete
 
Mensajes: 4019
Registrado: 22 Dic 2012, 16:10
Agradecido : 144 veces
Agradecimiento recibido: 1104 veces

Re: Rebeldes en Canadá (Amando de Ossorio, 1965) HDTV 1080p Dual Esp-Fra+SI

Mensaje por sete » 17 Sep 2019, 00:59

Muchas gracias, OCangaceiro.
:hi:
Este mundo está traicionando a la vida.
José Luis Sampedro

Avatar de Usuario
gatatitania
 
Mensajes: 4395
Registrado: 16 Oct 2012, 18:27
Ubicación: Gatatitania es un gato hambriento, superviviente del planeta gatatitania...
Agradecido : 2322 veces
Agradecimiento recibido: 1240 veces

Re: Rebeldes en Canadá (Amando de Ossorio, 1965) HDTV 1080p Dual Esp-Fra+SI

Mensaje por gatatitania » 17 Sep 2019, 17:28

¡Gracias, O´Cangaceiro! :genial: :genial: :genial:

jorobado7
 
Mensajes: 1784
Registrado: 16 Oct 2012, 15:08
Agradecido : 437 veces
Agradecimiento recibido: 2057 veces

Re: Rebeldes en Canadá (Amando de Ossorio, 1965) HDTV 1080p Dual Esp-Fra+SI

Mensaje por jorobado7 » 17 Sep 2019, 18:17

OCangaceiro, gracias mil...

Avatar de Usuario
Sikander
 
Mensajes: 258
Registrado: 20 Oct 2012, 16:24
Agradecido : 55 veces
Agradecimiento recibido: 388 veces

Re: Rebeldes en Canadá (Amando de Ossorio, 1965) HDTV 1080p Dual Esp-Fra+SI

Mensaje por Sikander » 17 Sep 2019, 19:09

Muchas gracias OCangaceiro.

Avatar de Usuario
tonapar1
 
Mensajes: 4072
Registrado: 16 Oct 2012, 20:19
Agradecido : 1057 veces
Agradecimiento recibido: 1104 veces

Re: Rebeldes en Canadá (Amando de Ossorio, 1965) HDTV 1080p Dual Esp-Fra+SI

Mensaje por tonapar1 » 23 Sep 2019, 07:32

Muchas gracias por el ripeo y los subs a ocangaceiro. Un saludo.

Responder

Volver a “Largos Modernos”