Merrill's Marauders (Samuel Fuller, 1962) BDRip 720p VOSE-SI + Aud Esp

Puntuación
7/10
3 votos

Invasión en Birmania

Moderador: Monsieur Lange

Responder
firejuice
 
Mensajes: 68
Registrado: 25 Oct 2013, 14:16
Agradecido : 50 veces
Agradecimiento recibido: 148 veces

Estados Unidos Merrill's Marauders (Samuel Fuller, 1962) BDRip 720p VOSE-SI + Aud Esp

Mensaje por firejuice » 11 Sep 2019, 14:10

Merrill's Marauders (Samuel Fuller, 1962)

Imagen
IMDB
Año de producción: 1962
País: Imagen
Dirección: Samuel Fuller
Intérpretes: Jeff Chandler, Ty Hardin, Peter Brown, Andrew Duggan, Will Hutchins, Claude Akins, Luz Valdez, John Hoyt, Charles Briggs, Chuck Roberson, Chuck Hayward, Jack C. Williams, Chuck Hicks, Vaughan Wilson, Pancho Magolona
Guión: Samuel Fuller, Milton Sperling (Novela: Charlton Ogburn Jr)
Música: Howard Jackson
Fotografía: William H. Clothier
Duración: 1 hora 38 minutos.
Género: Bélico | II Guerra Mundial

Segunda Guerra Mundial (1939-1945). El general Frank D. Merrill, que está al mando de una brigada de infantería compuesta por tres mil soldados voluntarios, tiene la misión de impedir el avance de las tropas japonesas en Birmania: un millón de soldados que esperan unirse a las tropas alemanas. La conquista de Birmania, llave de entrada a la India, es decisiva para los aliados. La brigada es la primera en infiltrarse tras las líneas japonesas. El plan consiste en ocultarse para poder sorprender al enemigo por medio de un golpe de mano. Lo que no esperaban era tener que enfrentarse a un nuevo enemigo desconocido y pavoroso: la jungla. (FILMAFFINITY)

Código: Seleccionar todo

Format                                   : Matroska
Format version                           : Version 4 / Version 2
File size                                : 4.32 GiB
Duration                                 : 1h 38mn
Overall bit rate                         : 6 305 Kbps
Encoded date                             : UTC 2019-09-11 11:56:22
Writing application                      : mkvmerge v6.5.0 ('Isn't she lovely') built on Oct 20 2013 12:50:05
Writing library                          : libebml v1.3.0 + libmatroska v1.4.1

Video
ID                                       : 1
Format                                   : AVC
Format/Info                              : Advanced Video Codec
Format profile                           : High@L4.1
Format settings, CABAC                   : Yes
Format settings, ReFrames                : 12 frames
Codec ID                                 : V_MPEG4/ISO/AVC
Duration                                 : 1h 38mn
Bit rate                                 : 4 671 Kbps
Width                                    : 1 280 pixels
Height                                   : 544 pixels
Display aspect ratio                     : 2.35:1
Frame rate mode                          : Constant
Frame rate                               : 23.976 fps
Color space                              : YUV
Chroma subsampling                       : 4:2:0
Bit depth                                : 8 bits
Scan type                                : Progressive
Bits/(Pixel*Frame)                       : 0.280
Stream size                              : 3.20 GiB (74%)
Writing library                          : x264 core 129 r2245+729M 1a52e03
Encoding settings                        : cabac=1 / ref=12 / deblock=1:-1:-1 / analyse=0x3:0x133 / me=umh / subme=10 / psy=1 / fade_compensate=0.00 / psy_rd=1.00:0.15 / mixed_ref=1 / me_range=24 / chroma_me=1 / trellis=2 / 8x8dct=1 / cqm=0 / deadzone=21,11 / fast_pskip=1 / chroma_qp_offset=-3 / threads=6 / lookahead_threads=1 / sliced_threads=0 / nr=0 / decimate=1 / interlaced=0 / bluray_compat=0 / constrained_intra=0 / fgo=0 / bframes=8 / b_pyramid=2 / b_adapt=2 / b_bias=0 / direct=3 / weightb=1 / open_gop=0 / weightp=2 / keyint=250 / keyint_min=23 / scenecut=40 / intra_refresh=0 / rc_lookahead=60 / rc=crf / mbtree=1 / crf=18.0 / qcomp=0.60 / qpmin=0 / qpmax=69 / qpstep=4 / ip_ratio=1.40 / aq=1:1.00
Language                                 : English
Default                                  : Yes
Forced                                   : No

Audio
ID                                       : 2
Format                                   : DTS
Format/Info                              : Digital Theater Systems
Mode                                     : 16
Format settings, Endianness              : Big
Codec ID                                 : A_DTS
Duration                                 : 1h 38mn
Bit rate mode                            : Constant
Bit rate                                 : 1 509 Kbps
Channel(s)                               : 2 channels
Channel positions                        : Front: L R
Sampling rate                            : 48.0 KHz
Bit depth                                : 24 bits
Compression mode                         : Lossy
Stream size                              : 1.03 GiB (24%)
Default                                  : Yes
Forced                                   : No

Text
ID                                       : 3
Format                                   : PGS
Muxing mode                              : zlib
Codec ID                                 : S_HDMV/PGS
Codec ID/Info                            : The same subtitle format used on BDs/HD-DVDs
Default                                  : Yes
Forced                                   : No

Imagen
Imagen
Imagen
Imagen

:arrow: merrill's.marauders.1962.720p.bluray.x264.dts.fire.mkv

Avatar de Usuario
tonapar1
 
Mensajes: 4128
Registrado: 16 Oct 2012, 20:19
Agradecido : 1069 veces
Agradecimiento recibido: 1126 veces

Re: Merrill's Marauders (Samuel Fuller, 1962) BDRip 720p VOSI

Mensaje por tonapar1 » 11 Sep 2019, 19:25

Muchas gracias por el ripeo a firejuice. Un saludo.

Avatar de Usuario
cagney
 
Mensajes: 559
Registrado: 18 Oct 2012, 00:02
Agradecido : 333 veces
Agradecimiento recibido: 568 veces

Re: Merrill's Marauders (Samuel Fuller, 1962) BDRip 720p VOSI

Mensaje por cagney » 11 Sep 2019, 22:51

Gran film bélico, de lo mejor del género y de su autor... Gracias por el excelente ripeo, ideal para refrescar el film y conservarlo en óptima calidad.

Avatar de Usuario
boettcher
 
Mensajes: 1561
Registrado: 17 Oct 2012, 12:01
Agradecido : 957 veces
Agradecimiento recibido: 254 veces

Re: Merrill's Marauders (Samuel Fuller, 1962) BDRip 720p VOSI

Mensaje por boettcher » 12 Sep 2019, 00:31

Muchas gracias, firejuice :)

Avatar de Usuario
chainsaw
 
Mensajes: 49
Registrado: 16 Oct 2012, 15:40
Agradecido : 3 veces
Agradecimiento recibido: 23 veces

Re: Merrill's Marauders (Samuel Fuller, 1962) BDRip 720p VOSI

Mensaje por chainsaw » 13 Sep 2019, 14:36

Muchas gracias,

Dejo unos subtitulos que valen para este archivo. Los he bajado de Opensubtitles y les he puesto un retraso (delay) de 1500 mseg:

eD2K link merrill's.marauders.1962.720p.bluray.x264.dts.fire.ESP.srt

Un saludo

cinefilobcn
 
Mensajes: 81
Registrado: 18 Oct 2012, 05:58
Agradecido : 17 veces
Agradecimiento recibido: 33 veces

Re: Merrill's Marauders (Samuel Fuller, 1962) BDRip 720p VOSE-SI

Mensaje por cinefilobcn » 15 Sep 2019, 10:10

Seria posible que alguien sincronizase el audio español?

cinefilobcn
 
Mensajes: 81
Registrado: 18 Oct 2012, 05:58
Agradecido : 17 veces
Agradecimiento recibido: 33 veces

Re: Merrill's Marauders (Samuel Fuller, 1962) BDRip 720p VOSE-SI

Mensaje por cinefilobcn » 15 Sep 2019, 23:42

El audio español sincronizado por Guayasen

https://mega.nz/#!7o4Rma4Q!KMbcxmzf6fC9 ... V4ZuW2x7JM


saludos

Responder

Volver a “Largos Modernos”