Shéhérazade (Pierre Gaspard-Huit, 1963) SATRip VE

Puntuación
2/10
1 voto

Scheherezade (Doblaje Cines 1964)

Moderador: Monsieur Lange

Responder
Avatar de Usuario
DCINE
 
Mensajes: 1528
Registrado: 30 Jul 2016, 20:09
Agradecido : 875 veces
Agradecimiento recibido: 2846 veces

Francia Shéhérazade (Pierre Gaspard-Huit, 1963) SATRip VE

Mensaje por DCINE » 20 Ago 2019, 10:17

Scheherezade
(La schiava di Bagdad)

1963


Imagen



DIRECTOR: Pierre Gaspard-Huit
PRODUCTORA: Coproducción Francia-Italia-España; Ciné-Alliance / Dear Film Produzione / Filmsonor / Spéva Films / Tecisa
GUIÓN: Pierre Gaspard-Huit, José Gutiérrez Maesso, Marc-Gilbert Sauvajon (Historia: Pierre Gaspard-Huit, José Gutiérrez Maesso, Marc-Gilbert Sauvajon)
MÚSICA: André Hossein
FOTOGRAFÍA: André Domage, Christian Matras



Imagen





ARGUMENTO Han prometido a la hermosa princesa árabe Sheherazade a Haroun-al-Raschid, un Sultán poderoso de Bagdad, formando parte del harén del sultán. En el transcurso del camino a Bagdad, la caravana donde viaja la princesa es atacada por ladrones beduinos, siendo secuestrada. El emisario y sobrino de Emperador Carlomagno, Renaud de Villecroix, que viaja camino de Bagdad con el objeto de tener audiencia con el Sultán para pedir un salvoconducto para los cristianos para llegar a Tierra Santa, tiene conocimiento del rapto e intentan salvarla. Mientras consigue su liberación, él también sucumbe a las tentaciones ofrecidas por la princesa Sheherazade, no pasando ésto inadvertido para el Sultán. (FILMAFFINITY) IMDB: https://www.imdb.com/title/tt0056485/

ImagenImagen
ImagenImagen
ImagenImagen
ImagenImagen
Imagen


Reparto: Anna Karina, Gérard Barray, Antonio Vilar, Giuliano Gemma, Marilù Tolo, Fausto Tozzi, Gil Vidal, Jorge Mistral, Fernando Rey, Joëlle LaTour, Rafael Albaicín, Karamoko Cisse, María Calvi, José Calvo, Félix Fernández

Imagen



Datos técnicos

Código: Seleccionar todo

General:

Complete name                    : 1963 Scheherezade (Scherezade) (Pierre Gaspard-Huit, 1963) SATRip VE (Doblaje Cines 1964) by DCINE.mkv
Format                           : Matroska
Format version                   : Version 4 / Version 2
File size                        : 1.86 GiB
Duration                         : 1h 53mn
Overall bit rate                 : 2 348 Kbps
Movie name                       : 1963 Scheherezade/Scherezade/La schiava di Bagdad (Pierre Gaspard-Huit, 1963) SATRip VE (Doblaje Cines 1964) by DCINE.mkv
Encoded date                     : UTC 2019-08-19T21:53:22Z
Writing application              : mkvmerge v7.1.0 ('Good Love') 32bit built on Jul 27 2014 12:59:18
Writing library                  : Lavf57.7.2

Video
ID                               : 1
Format                           : AVC
Format/Info                      : Advanced Video Codec
Format profile                   : High@L4.1
Format settings, CABAC           : Yes
Format settings, ReFrames        : 16 frames
Codec ID                         : V_MPEG4/ISO/AVC
Duration                         : 1h 53mn
Bit rate                         : 2 110 Kbps
Width                            : 720 pixels
Height                           : 432 pixels
Display aspect ratio             : 2.35:1
Frame rate mode                  : Variable
Frame rate                       : 25.000 fps
Color space                      : YUV
Chroma subsampling               : 4:2:0
Bit depth                        : 8 bits
Scan type                        : Progressive
Bits/(Pixel*Frame)               : 0.271
Stream size                      : 1.67 GiB (90%)
Writing library                  : x264 core 155 r2901 7d0ff22
Encoding settings                : cabac=1 / ref=16 / deblock=1:0:0 / analyse=0x3:0x133 / me=umh / subme=10 / psy=1 / psy_rd=1.00:0.00 / mixed_ref=1 / me_range=24 / chroma_me=1 / trellis=2 / 8x8dct=1 / cqm=0 / deadzone=21,11 / fast_pskip=1 / chroma_qp_offset=-2 / threads=3 / lookahead_threads=1 / sliced_threads=0 / nr=0 / decimate=1 / interlaced=0 / bluray_compat=0 / constrained_intra=0 / bframes=8 / b_pyramid=2 / b_adapt=2 / b_bias=0 / direct=3 / weightb=1 / open_gop=0 / weightp=2 / keyint=250 / keyint_min=25 / scenecut=40 / intra_refresh=0 / rc_lookahead=60 / rc=crf / mbtree=1 / crf=18.0 / qcomp=0.60 / qpmin=0 / qpmax=69 / qpstep=4 / vbv_maxrate=62500 / vbv_bufsize=78125 / crf_max=0.0 / nal_hrd=none / filler=0 / ip_ratio=1.40 / aq=1:1.00
Default                          : Yes
Forced                           : No
_STATISTICS_WRITING_APP          : mkvmerge v7.1.0 ('Good Love') 32bit built on Jul 27 2014 12:59:18
_STATISTICS_WRITING_DATE_UTC     : 2019-08-20 06:34:15
_STATISTICS_TAGS                 : BPS DURATION NUMBER_OF_FRAMES NUMBER_OF_BYTES
DURATION                         : 01:53:07.560000000
NUMBER_OF_FRAMES                 : 169677
NUMBER_OF_BYTES                  : 1827988321
Color primaries                  : BT.470-6 System B, BT.470-6 System G, BT.601-6 625, BT.1358 625, BT.1700 625 PAL, BT.1700 625 SECAM
Transfer characteristics         : BT.709-5, BT.1361
Matrix coefficients              : BT.601-6 525, BT.1358 525, BT.1700 NTSC, SMPTE 170M

Audio
ID                               : 2
Format                           : MPEG Audio
Format version                   : Version 1
Format profile                   : Layer 2
Codec ID                         : A_MPEG/L2
Codec ID/Hint                    : MP2
Duration                         : 1h 53mn
Bit rate mode                    : Constant
Bit rate                         : 192 Kbps
Channel(s)                       : 2 channels
Sampling rate                    : 48.0 KHz
Compression mode                 : Lossy
Delay relative to video          : 44ms
Stream size                      : 155 MiB (8%)
Title                            : Doblaje Cines 1964
Language                         : Spanish
Default                          : Yes
Forced                           : No
_STATISTICS_WRITING_APP          : mkvmerge v7.1.0 ('Good Love') 32bit built on Jul 27 2014 12:59:18
_STATISTICS_WRITING_DATE_UTC     : 2019-08-20 06:34:15
_STATISTICS_TAGS                 : BPS DURATION NUMBER_OF_FRAMES NUMBER_OF_BYTES
DURATION                         : 01:53:07.616000000
NUMBER_OF_FRAMES                 : 282814
NUMBER_OF_BYTES                  : 162900864


Capturas:


Imagen Imagen
Imagen Imagen
Imagen Imagen
Imagen Imagen
Imagen Imagen




Enlace:

eD2K link 1963 Scheherezade (Scherezade) (Pierre Gaspard-Huit, 1963) SATRip VE (Doblaje Cin...64) by DCINE.mkv [1.86 Gb] 

DD:

https://drive.google.com/open?id=1zrMyl ... Ugp0XzgNj4

Avatar de Usuario
carnicerito
 
Mensajes: 2002
Registrado: 16 Oct 2012, 17:03
Agradecido : 3954 veces
Agradecimiento recibido: 2954 veces

Re: Shéhérazade (Pierre Gaspard-Huit, 1963) SATRip VE

Mensaje por carnicerito » 20 Ago 2019, 11:02

Descargada y compartida. Gracias.

Avatar de Usuario
paljoe
 
Mensajes: 835
Registrado: 16 Dic 2012, 00:00
Agradecido : 1 vez
Agradecimiento recibido: 212 veces

Re: Shéhérazade (Pierre Gaspard-Huit, 1963) SATRip VE

Mensaje por paljoe » 20 Ago 2019, 12:57

muchas gracias, DCINE; le tenía muchas ganas.

jorobado7
 
Mensajes: 1746
Registrado: 16 Oct 2012, 15:08
Agradecido : 426 veces
Agradecimiento recibido: 2028 veces

Re: Shéhérazade (Pierre Gaspard-Huit, 1963) SATRip VE

Mensaje por jorobado7 » 20 Ago 2019, 15:18

muchas gracias DCINE y montagut por avisar de la emisión en tv.

Avatar de Usuario
sete
 
Mensajes: 3944
Registrado: 22 Dic 2012, 16:10
Agradecido : 137 veces
Agradecimiento recibido: 1091 veces

Re: Shéhérazade (Pierre Gaspard-Huit, 1963) SATRip VE

Mensaje por sete » 20 Ago 2019, 16:53

Muchas gracias, DCINE.
:hi:
Este mundo está traicionando a la vida.
José Luis Sampedro

Avatar de Usuario
yojimbo
 
Mensajes: 8768
Registrado: 18 Oct 2012, 14:25
Agradecido : 8634 veces
Agradecimiento recibido: 2080 veces

Re: Shéhérazade (Pierre Gaspard-Huit, 1963) SATRip VE

Mensaje por yojimbo » 20 Ago 2019, 17:56

Muchas gracias, DCINE.

estebandas
 
Mensajes: 307
Registrado: 20 Oct 2012, 13:12
Agradecimiento recibido: 60 veces

Re: Shéhérazade (Pierre Gaspard-Huit, 1963) SATRip VE

Mensaje por estebandas » 20 Ago 2019, 18:01

Muchas gracias.

Avatar de Usuario
carnicerito
 
Mensajes: 2002
Registrado: 16 Oct 2012, 17:03
Agradecido : 3954 veces
Agradecimiento recibido: 2954 veces

Re: Shéhérazade (Pierre Gaspard-Huit, 1963) SATRip VE

Mensaje por carnicerito » 20 Ago 2019, 22:49

Para mitómanos: Godard es el acróbata que anda cabeza abajo y pide una limosna a los caballeros francos.

Avatar de Usuario
tonapar1
 
Mensajes: 4003
Registrado: 16 Oct 2012, 20:19
Agradecido : 1037 veces
Agradecimiento recibido: 1097 veces

Re: Shéhérazade (Pierre Gaspard-Huit, 1963) SATRip VE

Mensaje por tonapar1 » 21 Ago 2019, 04:34

Muchas gracias por el ripeo a dcine y montagut. Un saludo a ambos.

Avatar de Usuario
Prudencio
 
Mensajes: 4162
Registrado: 16 Oct 2012, 18:46
Agradecido : 4575 veces
Agradecimiento recibido: 1570 veces

Re: Shéhérazade (Pierre Gaspard-Huit, 1963) SATRip VE

Mensaje por Prudencio » 21 Ago 2019, 20:25

Muchas gracias, DCINE y montagut. :hi:

Responder

Volver a “Largos Modernos”