Página 1 de 1

Prohibido enamorarse (José Antonio Nieves Conde, 1961) TVRip VO

Publicado: 12 Ago 2019, 09:28
por felipemarlou

Publicada por Montagut en exploradoresp2p

Imagen


Prohibido enamorarse (1961)

Director: José Antonio Nieves Conde
Guión: Luis Ligero, Edgar Neville, José Antonio Nieves Conde (Obra: Alfonso Paso)
Música: Manuel Parada
Fotografía: Alfredo Fraile (B/N)
Producción: Arturo González Producciones Cinematográficas
Duración: 87 min.
País: España

Intérpretes:
Rafael Alcántara, Rafael Bardem, Irán Eory, Lola Gaos, Ángel Garasa, Isabel Garcés, Elena García, Gracita Morales, Antonio Moreno , Julio Núñez, Francisco Piquer, Ena Sedeño, Tere Velázquez, Ángel Álvarez

http://www.imdb.com/title/tt0055332/

http://www.filmaffinity.com/es/film711974.htmll

Argumento:

El doctor Bolt tiene dos pacientes con historias similares. Leandro González y Elena García no se conocen, pero sus vidas son muy parecidas. Ambos son viudos, los dos se quejan continuamente de sus achaques y problemas de salud y, en definitiva, han perdido las ganas de vivir. Adaptación de la obra de teatro de Alfonso Paso "Cosas de Papá y Mamá".


Capturas:

Imagen
Imagen
Imagen
Imagen
Imagen


Datos técnicos:
Spoiler:
General
Complete name rohibido.enamorarse.(1961).DVBRip.Castellano.Exploradoresp2p.avi
Format : AVI
Format/Info : Audio Video Interleave
Format profile : OpenDML
File size : 1.30 GiB
Duration : 1h 26mn
Overall bit rate : 2 155 Kbps
Writing application : Lavf51.12.1

Video
ID : 0
Format : xvid
Codec ID : xvid
Duration : 1h 26mn
Bit rate : 2 012 Kbps
Width : 720 pixels
Height : 404 pixels
Display aspect ratio : 16:9
Frame rate : 25.000 fps
Bits/(Pixel*Frame) : 0.277
Stream size : 1.21 GiB (93%)

Audio
ID : 1
Format : MPEG Audio
Format version : Version 1
Format profile : Layer 3
Mode : Joint stereo
Codec ID : 55
Codec ID/Hint : MP3
Duration : 1h 26mn
Bit rate mode : Constant
Bit rate : 128 Kbps
Channel(s) : 2 channels
Sampling rate : 44.1 KHz
Compression mode : Lossy
Stream size : 78.8 MiB (6%)
Alignment : Aligned on interleaves
Interleave, duration : 26 ms (0.65 video frame)

Imagen


Enlace al emule:

eD2K link Prohibido.enamorarse.(1961).DVBRip.Castellano.Exploradoresp2p.avi [1.30 Gb] 

Re: Prohibido enamorarse (José Antonio Nieves Conde, 1961) TVRip VO

Publicado: 12 Ago 2019, 12:24
por gatatitania
¡Mil gracias, Felipe! :genial: :genial: :genial:

Re: Prohibido enamorarse (José Antonio Nieves Conde, 1961) TVRip VO

Publicado: 12 Ago 2019, 14:35
por sete
Muchas gracias, Montagut y felipemarlou.
:hi:

Re: Prohibido enamorarse (José Antonio Nieves Conde, 1961) TVRip VO

Publicado: 12 Ago 2019, 14:59
por jail
Gracias, felipe y Montagut.

Re: Prohibido enamorarse (José Antonio Nieves Conde, 1961) TVRip VO

Publicado: 12 Ago 2019, 18:32
por oskib
Muchas gracias, felipemarlou & montagut.

Re: Prohibido enamorarse (José Antonio Nieves Conde, 1961) TVRip VO

Publicado: 12 Ago 2019, 23:06
por tonapar1
Muchas gracias por el ripeo a felipemarlou y a montagut. Un saludo a ambos.

Re: Prohibido enamorarse (José Antonio Nieves Conde, 1961) TVRip VO

Publicado: 14 Ago 2019, 06:48
por tuscarola
Muchas gracias, Montagut y felipe.

Re: Prohibido enamorarse (José Antonio Nieves Conde, 1961) TVRip VO

Publicado: 14 Ago 2019, 14:26
por yojimbo
Muchas gracias, felipemarlou y Montagut.

Re: Prohibido enamorarse (José Antonio Nieves Conde, 1961) TVRip VO

Publicado: 22 Ago 2019, 00:11
por Prudencio
Muchas gracias, Felipe y Montagut. :hi: