El astronauta (Javier Aguirre, 1970) DVDRip VO

Puntuación
3,8/10
4 votos

Moderador: Monsieur Lange

Responder
Avatar de Usuario
DCINE
 
Mensajes: 1524
Registrado: 30 Jul 2016, 20:09
Agradecido : 875 veces
Agradecimiento recibido: 2833 veces

España El astronauta (Javier Aguirre, 1970) DVDRip VO

Mensaje por DCINE » 20 Jul 2019, 07:12

El astronauta
1970

Imagen

DIRECTOR: Javier Aguirre
PRODUCTORA: C.B. Films / Pedro Masó Producciones Cinematográficas
GUIÓN: Pedro Masó, Antonio Vich
MÚSICA: Antón García Abril
FOTOGRAFÍA: Juan Mariné




ARGUMENTO Nos encontramos en el pueblo de Minglanillas. Mientras el hombre llega a la Luna, un grupo de amigos observa en un bar por televisión la retransmisión del evento. Pepe Fernández, uno de los clientes del bar, afirma que con algo de dinero y mucha dedicación ellos pueden hacer lo mismo. Tras discutir el tema, deciden ponerse manos a la obra. Toman prestados los terrenos del acaudalado Don Gregorio Minglanillas, al que convencen rápidamente, e instalan en ellos la base de la SANA. Raptan a Don Anselmo, un viejo profesor que sostiene haber sido él mismo quien enseñó a von Braun, y con su ayuda comienzan a fabricar los planos del cohete. Tras finalizar la construcción de la nave y el entrenamiento del futuro astronauta a las duras condiciones del espacio exterior, finalmente se presentan, simulando ser visitantes, en la base espacial de de la NASA en Fresnedillas, para ver si pueden hacer un puente de comunicación con su base en Minglanillas. Increíblemente, logran su propósito, y todo está ya preparado. Sólo falta el lanzamiento... (FILMAFFINITY) IMDB: https://www.imdb.com/title/tt0065432/




ImagenImagen
ImagenImagen
Imagen



Imagen



Reparto:
Tony Leblanc, José Luis López Vázquez, Francisco Cano, Puri Villa, José Sazatornil, Antonio Ferrandis, Rafael Alonso, José Luis Coll, Antonio Ozores



Datos Técnicos:

Código: Seleccionar todo

 General:

Complete name                    : 1970 El astronauta (Javier Aguirre, 1970) DVDRip VO by DCINE.mkv
Format                           : Matroska
Format version                   : Version 4 / Version 2
File size                        : 1.22 GiB
Duration                         : 1h 23mn
Overall bit rate                 : 2 084 Kbps
Encoded date                     : UTC 2017-08-26T14:05:09Z
Writing application              : mkvmerge v7.1.0 ('Good Love') 32bit built on Jul 27 2014 12:59:18
Writing library                  : Lavf55.12.0
DURATION                         : 01:23:34.128000000
NUMBER_OF_FRAMES                 : 208922
NUMBER_OF_BYTES                  : 120339072
_STATISTICS_WRITING_APP          : mkvmerge v7.1.0 ('Good Love') 32bit built on Jul 27 2014 12:59:18
_STATISTICS_WRITING_DATE_UTC     : 2017-08-26 19:01:53
_STATISTICS_TAGS                 : BPS DURATION NUMBER_OF_FRAMES NUMBER_OF_BYTES

Video
ID                               : 1
Format                           : AVC
Format/Info                      : Advanced Video Codec
Format profile                   : High@L4.1
Format settings, CABAC           : Yes
Format settings, ReFrames        : 4 frames
Codec ID                         : V_MPEG4/ISO/AVC
Duration                         : 1h 23mn
Bit rate                         : 1 851 Kbps
Width                            : 716 pixels
Height                           : 548 pixels
Display aspect ratio             : 1.861
Frame rate mode                  : Variable
Frame rate                       : 25.000 fps
Color space                      : YUV
Chroma subsampling               : 4:2:0
Bit depth                        : 8 bits
Scan type                        : Progressive
Bits/(Pixel*Frame)               : 0.189
Stream size                      : 1.08 GiB (89%)
Writing library                  : x264 core 142 r2479 dd79a61
Encoding settings                : cabac=1 / ref=3 / deblock=1:0:0 / analyse=0x3:0x113 / me=hex / subme=7 / psy=1 / psy_rd=1.00:0.00 / mixed_ref=1 / me_range=16 / chroma_me=1 / trellis=1 / 8x8dct=1 / cqm=0 / deadzone=21,11 / fast_pskip=1 / chroma_qp_offset=-2 / threads=1 / lookahead_threads=1 / sliced_threads=0 / nr=0 / decimate=1 / interlaced=0 / bluray_compat=0 / constrained_intra=0 / bframes=3 / b_pyramid=2 / b_adapt=1 / b_bias=0 / direct=1 / weightb=1 / open_gop=0 / weightp=2 / keyint=250 / keyint_min=25 / scenecut=40 / intra_refresh=0 / rc_lookahead=40 / rc=crf / mbtree=1 / crf=20.0 / qcomp=0.60 / qpmin=0 / qpmax=69 / qpstep=4 / vbv_maxrate=62500 / vbv_bufsize=78125 / crf_max=0.0 / nal_hrd=none / filler=0 / ip_ratio=1.40 / aq=1:1.00
Default                          : Yes
Forced                           : No
DURATION                         : 01:23:34.160000000
NUMBER_OF_FRAMES                 : 125354
NUMBER_OF_BYTES                  : 1184941992
_STATISTICS_WRITING_APP          : mkvmerge v7.1.0 ('Good Love') 32bit built on Jul 27 2014 12:59:18
_STATISTICS_WRITING_DATE_UTC     : 2017-08-26 19:01:53
_STATISTICS_TAGS                 : BPS DURATION NUMBER_OF_FRAMES NUMBER_OF_BYTES
Color primaries                  : BT.470-6 System B, BT.470-6 System G, BT.601-6 625, BT.1358 625, BT.1700 625 PAL, BT.1700 625 SECAM
Transfer characteristics         : BT.709-5, BT.1361
Matrix coefficients              : BT.601-6 525, BT.1358 525, BT.1700 NTSC, SMPTE 170M

Audio
ID                               : 2
Format                           : MPEG Audio
Format version                   : Version 1
Format profile                   : Layer 2
Codec ID                         : A_MPEG/L2
Codec ID/Hint                    : MP2
Duration                         : 1h 23mn
Bit rate mode                    : Constant
Bit rate                         : 192 Kbps
Channel(s)                       : 2 channels
Sampling rate                    : 48.0 KHz
Compression mode                 : Lossy
Delay relative to video          : -80ms
Stream size                      : 115 MiB (9%)
Language                         : Spanish
Default                          : Yes
Forced                           : No

Menu #1
00:00:00.000                     : :Chapter 1
00:09:54.400                     : :Chapter 2
00:17:42.400                     : :Chapter 3
00:25:06.400                     : :Chapter 4
00:34:51.520                     : :Chapter 5
00:44:39.040                     : :Chapter 6
00:51:13.120                     : :Chapter 7
01:00:49.600                     : :Chapter 8
01:10:12.160                     : :Chapter 9
01:17:58.720                     : :Chapter 10
01:22:19.360                     : :Chapter 11

Menu #2
00:00:00.080                     : en:Chapter 01
00:09:54.320                     : en:Chapter 02
00:17:42.320                     : en:Chapter 03
00:25:06.320                     : en:Chapter 04
00:34:51.440                     : en:Chapter 05
00:44:38.960                     : en:Chapter 06
00:51:13.040                     : en:Chapter 07
01:00:49.520                     : en:Chapter 08
01:10:12.080                     : en:Chapter 09
01:17:58.640                     : en:Chapter 10
01:22:19.280                     : en:Chapter 11
01:23:33.200                     : en:Chapter 12




Capturas:

Imagen Imagen
Imagen Imagen
Imagen Imagen
Imagen Imagen
Imagen Imagen



Enlace:



eD2K link 1970 El astronauta (Javier Aguirre, 1970) DVDRip VO by DCINE.mkv [1.22 Gb] 

DD: https://drive.google.com/open?id=1-UIJd ... ubr6w1H7l4


Avatar de Usuario
carnicerito
 
Mensajes: 1980
Registrado: 16 Oct 2012, 17:03
Agradecido : 3882 veces
Agradecimiento recibido: 2923 veces

Re: El astronauta (Javier Aguirre, 1970) DVDRip VO

Mensaje por carnicerito » 20 Jul 2019, 08:00

Descargada y compartida, gracias.

Avatar de Usuario
sete
 
Mensajes: 3870
Registrado: 22 Dic 2012, 16:10
Agradecido : 130 veces
Agradecimiento recibido: 1077 veces

Re: El astronauta (Javier Aguirre, 1970) DVDRip VO

Mensaje por sete » 20 Jul 2019, 14:44

Muchas gracias, DCINE.
:hi:
Este mundo está traicionando a la vida.
José Luis Sampedro

jail
 
Mensajes: 5952
Registrado: 18 Oct 2012, 15:34
Agradecido : 6530 veces
Agradecimiento recibido: 1812 veces

Re: El astronauta (Javier Aguirre, 1970) DVDRip VO

Mensaje por jail » 20 Jul 2019, 20:22

Gracias, DCINE.

Avatar de Usuario
yojimbo
 
Mensajes: 8694
Registrado: 18 Oct 2012, 14:25
Agradecido : 8541 veces
Agradecimiento recibido: 2051 veces

Re: El astronauta (Javier Aguirre, 1970) DVDRip VO

Mensaje por yojimbo » 21 Jul 2019, 11:49

Muchas gracias, DCINE.

Avatar de Usuario
tonapar1
 
Mensajes: 3957
Registrado: 16 Oct 2012, 20:19
Agradecido : 1006 veces
Agradecimiento recibido: 1083 veces

Re: El astronauta (Javier Aguirre, 1970) DVDRip VO

Mensaje por tonapar1 » 21 Jul 2019, 18:04

Muchas gracias por el ripeo a dcine. Un saludo.

Responder

Volver a “Largos Modernos”