Il grande colpo di Surcouf (Bergonzelli y Rowland, 1966) TVRip Dual

Puntuación
Sin
puntuar

Tormenta sobre el Pacifico

Moderador: Monsieur Lange

Responder
jorobado7
 
Mensajes: 1779
Registrado: 16 Oct 2012, 15:08
Agradecido : 436 veces
Agradecimiento recibido: 2057 veces

Francia Il grande colpo di Surcouf (Bergonzelli y Rowland, 1966) TVRip Dual

Mensaje por jorobado7 » 11 Jul 2019, 16:34

montagut y gorgin en exploradores p2p

Il grande colpo di Surcouf - Sergio Bergonzelli y Roy Rowland, 1966


Imagen


https://www.imdb.com/title/tt0061103/?ref_=nm_flmg_dr_1

Secuela de Surcouf, l'eroe dei sette mari

Título original: Il grande colpo di Surcouf
Año: 1966
Duración: 97 min.
País: Coproducción Italia-Francia-España
Dirección: Sergio Bergonzelli, Roy Rowland
Guion: Guy Farrell, Georges de la Grandière, Gerald Saveri, Giorgio Simonelli, Jacques Séverac, José Antonio de la Loma
Música: Georges Garvarentz
Fotografía: Juan Gelpí
Productora: Arco Film / Balcázar Producciones Cinematográficas / Rialto Film
Género: Aventuras | Piratas. Secuela
Imagen
Imagen
Imagen
Reparto:

Gérard Barray, Antonella Lualdi, Terence Morgan, Geneviève Casile, Armand Mestral, Gérard Tichy, Alberto Cevenini, Giani Esposito, Fernando Sancho, Antonio Molino Rojo, Gonzalo de Esquiroz, George Rigaud, Mónica Randall, Rossella Bergamonti, Virgilio Teixeira, Ivano Staccioli, Tomás Blanco, Frank Oliveras, Mariano Vidal Molina, Aldo Sambrell, Luis Barboo, José María Caffarel, Víctor Israel



Sinopsis:

Ante el estallido de las hostilidades entre Inglaterra y Francia, Napoleón encarga al ex corsario Surcouf una peligrosa misión. En la isla de Mahais, ahora en manos del enemigo, Surcouf debe encontrar y destruir unos documentos en los cuales está minuciosamente descrita la localización de las fuerzas francesas en el océano y una lista con los nombres de los agentes secretos. Surcouf acepta con entusiasmo el encargo y llega a la isla, donde consigue hacer desaparecer los papeles, pero cuando está a punto de marcharse es descubierto. (FILMAFFINITY)
secuela de: El tigre de los siete mares tema36281.html


Montaje DVD+DVB dual español-frances de Gorgin

Tormenta sobre el Pacifico -Dual esp-fr [1.49 Gb]

General
Complete name : Tormenta.sobre.el.Pacifico.(1967).DVDRip+DVB.Dual.Castellano+Frances.Exploradoresp2p.avi
Format : AVI
Format/Info : Audio Video Interleave
File size : 1.49 GiB
Duration : 1 h 30 min
Overall bit rate : 2 361 kb/s
Writing application : VirtualDubMod 1.5.10.2 (build 2540/release)
Writing library : VirtualDubMod build 2540/release

Video
ID : 0
Format : MPEG-4 Visual
Format settings, BVOP : 1
Format settings, QPel : No
Format settings, GMC : No warppoints
Format settings, Matrix : Default (H.263)
Muxing mode : Packed bitstream
Codec ID : DX50
Codec ID/Hint : DivX 5
Duration : 1 h 30 min
Bit rate : 1 963 kb/s
Nominal bit rate : 7 800 kb/s
Width : 720 pixels
Height : 400 pixels
Display aspect ratio : 16:9
Frame rate : 25.000 FPS
Color space : YUV
Chroma subsampling : 4:2:0
Bit depth : 8 bits
Scan type : Progressive
Compression mode : Lossy
Bits/(Pixel*Frame) : 0.273
Stream size : 1.24 GiB (83%)
Writing library : DivX 6.8.5 (UTC 2009-08-20)

Audio #1
ID : 1
Format : MPEG Audio
Format version : Version 1
Format profile : Layer 3
Codec ID : 55
Codec ID/Hint : MP3
Duration : 1 h 30 min
Bit rate mode : Constant
Bit rate : 192 kb/s
Channel(s) : 2 channels
Sampling rate : 48.0 kHz
Compression mode : Lossy
Stream size : 124 MiB (8%)
Alignment : Aligned on interleaves
Interleave, duration : 40 ms (1.00 video frame)
Interleave, preload duration : 504 ms
Writing library : LAME3.98r
Encoding settings : -m s -V 4 -q 3 -lowpass 18.6 -b 192
Language : Francais

Audio #2
ID : 2
Format : AC-3
Format/Info : Audio Coding 3
Format settings, Endianness : Big
Codec ID : 2000
Duration : 1 h 30 min
Bit rate mode : Constant
Bit rate : 192 kb/s
Channel(s) : 2 channels
Channel positions : Front: L R
Sampling rate : 48.0 kHz
Frame rate : 31.250 FPS (1536 SPF)
Bit depth : 16 bits
Compression mode : Lossy
Stream size : 124 MiB (8%)
Alignment : Split accross interleaves
Interleave, duration : 40 ms (1.00 video frame)
Interleave, preload duration : 500 ms
Service kind : Complete Main







Complete name : Tormenta.sobre.el.Pacifico.(1967).DVDRip+DVB.Dual.Castellano+Frances.Exploradoresp2p.avi
Format : AVI
Format/Info : Audio Video Interleave
File size : 1.49 GiB
Duration : 1 h 30 min
Overall bit rate : 2 361 kb/s
Writing application : VirtualDubMod 1.5.10.2 (build 2540/release)
Writing library : VirtualDubMod build 2540/release

Video
ID : 0
Format : MPEG-4 Visual
Format settings, BVOP : 1
Format settings, QPel : No
Format settings, GMC : No warppoints
Format settings, Matrix : Default (H.263)
Muxing mode : Packed bitstream
Codec ID : DX50
Codec ID/Hint : DivX 5
Duration : 1 h 30 min
Bit rate : 1 963 kb/s
Nominal bit rate : 7 800 kb/s
Width : 720 pixels
Height : 400 pixels
Display aspect ratio : 16:9
Frame rate : 25.000 FPS
Color space : YUV
Chroma subsampling : 4:2:0
Bit depth : 8 bits
Scan type : Progressive
Compression mode : Lossy
Bits/(Pixel*Frame) : 0.273
Stream size : 1.24 GiB (83%)
Writing library : DivX 6.8.5 (UTC 2009-08-20)

eD2K link Tormenta.sobre.el.Pacifico.(1967).DVDRip+DVB.Dual.Castellano+Frances.Exploradoresp2p.avi [1.49 Gb] 

Avatar de Usuario
yojimbo
 
Mensajes: 8842
Registrado: 18 Oct 2012, 14:25
Agradecido : 8741 veces
Agradecimiento recibido: 2094 veces

Re: Il grande colpo di Surcouf (Bergonzelli y Rowland, 1966)TVRip Dual

Mensaje por yojimbo » 12 Jul 2019, 14:37

Muchas gracias, jorobado7, montagut, gorgin y a hdjzgz por el aviso.

Avatar de Usuario
gatatitania
 
Mensajes: 4390
Registrado: 16 Oct 2012, 18:27
Ubicación: Gatatitania es un gato hambriento, superviviente del planeta gatatitania...
Agradecido : 2322 veces
Agradecimiento recibido: 1240 veces

Re: Il grande colpo di Surcouf (Bergonzelli y Rowland, 1966) TVRip Dual

Mensaje por gatatitania » 14 Jul 2019, 14:47

¡Qué buena pinta! :amo: :amo: :amo:

Responder

Volver a “Largos Modernos”