Cheryomushki (Gerbert Rappaport, 1963) DVDRip VOSE

Puntuación
2/10
1 voto

Cherry Town / Song Over Moscu

Moderador: Monsieur Lange

Responder
Avatar de Usuario
Lobo López
 
Mensajes: 1330
Registrado: 16 Oct 2012, 15:07
Ubicación: Cuenca
Agradecido : 1826 veces
Agradecimiento recibido: 2533 veces
Contactar:

ex Unión Soviética Cheryomushki (Gerbert Rappaport, 1963) DVDRip VOSE

Mensaje por Lobo López » 07 Feb 2019, 12:58

CHERYOMUSHKI

Imagen
Imagen
Imagen

Título original: Cheryomushki
Director: Gerbert Rappaport
Reparto: Olga Zabotkina, Vladimir Vasilyev, Marina Khotuntseva, Gennadi Bortnikov, Svetlana Zhivankova, Vladimir Zemlyanikin, Vasiliy Merkurev, Marina Polbentseva
Guion: Isaac Glikman (Libreto: Mikhail Chervinsky, Vladimir Mass)
Música: Dmitri Shostakovich
Fotografía: Anatoli Nazarov
Año: 1963
País: URSS
Duración: 92 min.
Producción: Lenfilm Studio
Género: Comedia musical


Argumento: Lida Baburova es guía en el museo de historia y reconstrucción de Moscú, donde muestra a los visitantes la maqueta de la nueva zona residencial: Cheryomushki. Un día, poco antes de acabar la jornada laboral, se presentan en el museo el conductor Sergei y su amigo Boris, que llevan un retrato para entregar. Boris queda prendado de la belleza de Lida y empieza a cortejarla, pero a la joven le importuna el descaro de Boris...




ImagenImagen
ImagenImagen
ImagenImagen
ImagenImagen

Datos Técnicos:
Spoiler:
Format : Matroska
Format version : Version 4 / Version 2
File size : 1.41 GiB
Duration : 1 h 27 min
Overall bit rate : 2 323 kb/s
Encoded date : UTC 2019-02-06 10:54:14
Writing application : mkvmerge v9.1.0 ('Little Earthquakes') 64bit
Writing library : libebml v1.3.3 + libmatroska v1.4.4

Video
ID : 1
Format : AVC
Format/Info : Advanced Video Codec
Format profile : High@L4.1
Format settings, CABAC : Yes
Format settings, ReFrames : 16 frames
Codec ID : V_MPEG4/ISO/AVC
Duration : 1 h 27 min
Bit rate : 1 921 kb/s
Width : 720 pixels
Height : 480 pixels
Display aspect ratio : 4:3
Frame rate mode : Constant
Frame rate : 29.970 (30000/1001) FPS
Standard : NTSC
Color space : YUV
Chroma subsampling : 4:2:0
Bit depth : 8 bits
Scan type : Progressive
Bits/(Pixel*Frame) : 0.185
Stream size : 1.17 GiB (83%)
Writing library : x264 core 129 r2245+729M 1a52e03
Encoding settings : cabac=1 / ref=16 / deblock=1:-1:-1 / analyse=0x3:0x133 / me=umh / subme=10 / psy=1 / fade_compensate=0.00 / psy_rd=1.00:0.15 / mixed_ref=1 / me_range=24 / chroma_me=1 / trellis=2 / 8x8dct=1 / cqm=0 / deadzone=21,11 / fast_pskip=0 / chroma_qp_offset=-3 / threads=6 / lookahead_threads=1 / sliced_threads=0 / nr=0 / decimate=1 / interlaced=0 / bluray_compat=0 / constrained_intra=0 / fgo=0 / bframes=8 / b_pyramid=2 / b_adapt=2 / b_bias=0 / direct=3 / weightb=1 / open_gop=0 / weightp=2 / keyint=250 / keyint_min=25 / scenecut=40 / intra_refresh=0 / rc_lookahead=60 / rc=crf / mbtree=1 / crf=18.6 / qcomp=0.60 / qpmin=0 / qpmax=69 / qpstep=4 / ip_ratio=1.40 / aq=1:1.00
Language : Russian
Default : Yes
Forced : No

Audio
ID : 2
Format : AC-3
Format/Info : Audio Coding 3
Mode extension : CM (complete main)
Format settings, Endianness : Big
Codec ID : A_AC3
Duration : 1 h 27 min
Bit rate mode : Constant
Bit rate : 384 kb/s
Channel(s) : 2 channels
Channel positions : Front: L R
Sampling rate : 48.0 kHz
Frame rate : 31.250 FPS (1536 spf)
Compression mode : Lossy
Stream size : 239 MiB (17%)
Language : Russian
Default : Yes
Forced : No

Text #1
ID : 3
Format : VobSub
Muxing mode : zlib
Codec ID : S_VOBSUB
Codec ID/Info : Picture based subtitle format used on DVDs
Duration : 1 h 26 min
Bit rate : 2 436 b/s
Count of elements : 1036
Stream size : 1.51 MiB (0%)
Language : Spanish
Default : Yes
Forced : No

Text #2
ID : 4
Format : VobSub
Muxing mode : zlib
Codec ID : S_VOBSUB
Codec ID/Info : Picture based subtitle format used on DVDs
Duration : 1 h 26 min
Bit rate : 2 338 b/s
Count of elements : 1036
Stream size : 1.45 MiB (0%)
Language : English
Default : No
Forced : No

Text #3
ID : 5
Format : VobSub
Muxing mode : zlib
Codec ID : S_VOBSUB
Codec ID/Info : Picture based subtitle format used on DVDs
Duration : 1 h 26 min
Bit rate : 2 478 b/s
Count of elements : 1036
Stream size : 1.54 MiB (0%)
Language : French
Default : No
Forced : No

Text #4
ID : 6
Format : VobSub
Muxing mode : zlib
Codec ID : S_VOBSUB
Codec ID/Info : Picture based subtitle format used on DVDs
Duration : 1 h 26 min
Bit rate : 2 558 b/s
Count of elements : 1036
Stream size : 1.59 MiB (0%)
Language : German
Default : No
Forced : No

Text #5
ID : 7
Format : VobSub
Muxing mode : zlib
Codec ID : S_VOBSUB
Codec ID/Info : Picture based subtitle format used on DVDs
Duration : 1 h 26 min
Bit rate : 2 295 b/s
Count of elements : 1036
Stream size : 1.42 MiB (0%)
Language : Italian
Default : No
Forced : No

Text #6
ID : 8
Format : VobSub
Muxing mode : zlib
Codec ID : S_VOBSUB
Codec ID/Info : Picture based subtitle format used on DVDs
Duration : 1 h 26 min
Bit rate : 2 930 b/s
Count of elements : 1015
Stream size : 1.81 MiB (0%)
Language : Chinese
Default : No
Forced : No

Menu
00:00:00.000 : en:Chapter 01
00:03:11.724 : en:Chapter 02
00:06:13.439 : en:Chapter 03
00:11:50.876 : en:Chapter 04
00:17:33.652 : en:Chapter 05
00:21:46.805 : en:Chapter 06
00:24:00.605 : en:Chapter 07
00:26:05.630 : en:Chapter 08
00:28:42.887 : en:Chapter 09
00:32:04.088 : en:Chapter 10
00:38:19.363 : en:Chapter 11
00:39:42.546 : en:Chapter 12
00:42:45.563 : en:Chapter 13
00:45:22.386 : en:Chapter 14
00:52:35.152 : en:Chapter 15
00:55:13.543 : en:Chapter 16
01:03:14.023 : en:Chapter 17
01:06:19.742 : en:Chapter 18
01:11:22.077 : en:Chapter 19
01:16:40.762 : en:Chapter 20
01:21:39.094 : en:Chapter 21
01:24:54.756 : en:Chapter 22


Ripeo propio

:flecha: eD2K link cheryomushki.1963.dvdrip.x264.ac3.mkv [1.41 Gb] 

La dejo en descarga directa por un tiempo:
https://mega.nz/#!QddDASZB!rT6iyxfWf7-n ... GlCbffT0uA

Subs en español, inglés, francés, alemán, italiano y chino, dentro del archivo.


Un pequeño fragmento de la película, para que os hagáis una idea:
https://www.youtube.com/watch?v=B8UPMjErPvk



FILM MUSSEUM.AT:
El único emigrante (austríaco) con una verdadera carrera cinematográfica en la Unión Soviética nació como Herbert Rappaport en Viena en 1908 y murió en Leningrado en 1983 con el nombre de Gerbert Moricovic Rappaport. Inicialmente asistente de G. W. Pabst en las obras maestras alemanas y francesas de principios de los años 30, Rappaport fue invitado oficialmente por la Unión Soviética en 1936 para internacionalizar su cine anti-nazi y de entretenimiento. Aceptó la invitación y pasó los siguientes 40 años recorriendo los numerosos paisajes del cine de género: desde los luchadores de la resistencia en la Alemania nazi, los espías japoneses en Manchuria y los levantamientos partidistas en Yugoslavia hasta las comedias y musicales de guerra, los whodunits y las epopeyas al estilo Zhivago de la Revolución.

Con motivo de su centenario, se celebrará por primera vez un amplio homenaje a Herbert Rappaport: un redescubrimiento que también ofrece una visión del cine ruso más allá de los nombres en el canon oficial. Ya sea en la primera película Professor Mamlok (1938) o en la última coproducción de Alemania Oriental sobre el pan de la revolución, Black Dried Crust (1971), ya sea en cortometrajes como Van'ka o A Hundred for One (hecho para los legendarios almanaques de guerra) o en la película más conocida de Rappaport, la gloriosamente colorida adaptación de Shostakovich, Cheryomushki (1963), con una tremendamente divertida coreografía: para él, la película siempre es igual a artesanía, convicción, habilidad y experimento. Es un medio de esfuerzo colectivo, cuya historia a veces va más allá de las categorías de cine de autor. Si Rappaport hubiera terminado en Hollywood como su viejo colega de la escuela Fred Zinnemann, podría haberse asegurado un lugar en los corazones y las mentes de los cinéfilos del mundo hace mucho tiempo.





:hi:

Avatar de Usuario
sete
 
Mensajes: 3564
Registrado: 22 Dic 2012, 16:10
Agradecido : 97 veces
Agradecimiento recibido: 928 veces

Re: Cheryomushki (Gerbert Rappaport, 1963) DVDRip VOSE

Mensaje por sete » 07 Feb 2019, 15:37

Muchas gracias, Lobo López.
:hi:
Este mundo está traicionando a la vida.
José Luis Sampedro

jail
 
Mensajes: 5558
Registrado: 18 Oct 2012, 15:34
Agradecido : 6125 veces
Agradecimiento recibido: 1583 veces

Re: Cheryomushki (Gerbert Rappaport, 1963) DVDRip VOSE

Mensaje por jail » 07 Feb 2019, 19:26

Gracias, Lobo.

Avatar de Usuario
tonapar1
 
Mensajes: 3572
Registrado: 16 Oct 2012, 20:19
Agradecido : 837 veces
Agradecimiento recibido: 880 veces

Re: Cheryomushki (Gerbert Rappaport, 1963) DVDRip VOSE

Mensaje por tonapar1 » 18 Feb 2019, 17:12

Muchas gracias por el ripeo a lobo lopez. Un saludo.

Responder

Volver a “Largos Modernos”