Solamente Nero (Antonio Bido, 1978) BDRip 720p VOSE

Puntuación
Sin
puntuar

Moderador: Monsieur Lange

Responder
Avatar de Usuario
hammett
 
Mensajes: 1401
Registrado: 17 Nov 2012, 16:51
Agradecido : 435 veces
Agradecimiento recibido: 4297 veces

Italia Solamente Nero (Antonio Bido, 1978) BDRip 720p VOSE

Mensaje por hammett » 11 Ene 2019, 19:06


SOLAMENTE NERO

Imagen

IMDB

AÑO: 1978
NACIONALIDAD: Italia
GÉNERO: Thriller
DIRECTOR: Antonio Bido
GUIÓN: Marisa Andalò, Antonio Bido
NOVELA: Valentino Bompiani
FOTOGRAFÍA: Mario Vulpiani
MONTAJE: Amedeo Giomini
MÚSICA: Stelvio Cipriani
REPARTO: Lino Capolicchio, Stefania Casini, Craig Hill, Massimo Serato, Juliette Mayniel, Laura Nucci, Attilio Duse, Gianfranco Bullo, Luigi Casellato, Alfredo Zammi, Alina De Simone.
ARGUMENTO: Años después de un terrible suceso relacionado con la muerte de una niña, un joven llamado Stefano se reencuentra con su hermano sacerdote. (FILMAFFINITY)

CAPTURAS

Imagen

Imagen

Imagen

Imagen

Imagen


DATOS TECNICOS
Spoiler:
General
Unique ID : 336514627862405940632010811581289179378 (0xFD2A5C1F4A571997B989CBF9C593A8F2)
Complete name : J:\Emule\(1978) Solamente nero.-. The bloodstained shadow [X264 ITA - ENG] BDRip.mkv
Format : Matroska
Format version : Version 2
File size : 1.62 GiB
Duration : 1h 48mn
Overall bit rate : 2 125 Kbps
Encoded date : UTC
Writing application : HandBrake 0.10.2 2015060900
Writing library : Lavf55.12.0

Video
ID : 1
Format : AVC
Format/Info : Advanced Video Codec
Format profile : High@L4.1
Format settings, CABAC : Yes
Format settings, ReFrames : 4 frames
Codec ID : V_MPEG4/ISO/AVC
Duration : 1h 48mn
Bit rate : 1 800 Kbps
Width : 1 334 pixels
Height : 720 pixels
Display aspect ratio : 1.85:1
Frame rate mode : Constant
Frame rate : 23.976 fps
Color space : YUV
Chroma subsampling : 4:2:0
Bit depth : 8 bits
Scan type : Progressive
Bits/(Pixel*Frame) : 0.078
Stream size : 1.34 GiB (83%)
Writing library : x264 core 142 r2479 dd79a61
Encoding settings : cabac=1 / ref=3 / deblock=1:0:0 / analyse=0x3:0x113 / me=hex / subme=7 / psy=1 / psy_rd=1.00:0.00 / mixed_ref=1 / me_range=16 / chroma_me=1 / trellis=1 / 8x8dct=1 / cqm=0 / deadzone=21,11 / fast_pskip=1 / chroma_qp_offset=-2 / threads=6 / lookahead_threads=1 / sliced_threads=0 / nr=0 / decimate=1 / interlaced=0 / bluray_compat=0 / constrained_intra=0 / bframes=3 / b_pyramid=2 / b_adapt=1 / b_bias=0 / direct=1 / weightb=1 / open_gop=0 / weightp=2 / keyint=240 / keyint_min=24 / scenecut=40 / intra_refresh=0 / rc_lookahead=40 / rc=2pass / mbtree=1 / bitrate=1800 / ratetol=1.0 / qcomp=0.60 / qpmin=0 / qpmax=69 / qpstep=4 / cplxblur=20.0 / qblur=0.5 / vbv_maxrate=62500 / vbv_bufsize=78125 / nal_hrd=none / filler=0 / ip_ratio=1.40 / aq=1:1.00
Default : Yes
Forced : No
Color primaries : BT.709
Transfer characteristics : BT.709
Matrix coefficients : BT.709

Audio #1
ID : 2
Format : AC-3
Format/Info : Audio Coding 3
Mode extension : CM (complete main)
Format settings, Endianness : Big
Codec ID : A_AC3
Duration : 1h 48mn
Bit rate mode : Constant
Bit rate : 160 Kbps
Channel(s) : 2 channels
Channel positions : Front: L R
Sampling rate : 48.0 KHz
Bit depth : 16 bits
Compression mode : Lossy
Delay relative to video : 1mn 5s
Stream size : 125 MiB (8%)
Title : Stereo
Language : Italian
Default : Yes
Forced : No

Audio #2
ID : 3
Format : AC-3
Format/Info : Audio Coding 3
Mode extension : CM (complete main)
Format settings, Endianness : Big
Codec ID : A_AC3
Duration : 1h 48mn
Bit rate mode : Constant
Bit rate : 160 Kbps
Channel(s) : 2 channels
Channel positions : Front: L R
Sampling rate : 48.0 KHz
Bit depth : 16 bits
Compression mode : Lossy
Delay relative to video : 1mn 5s
Stream size : 125 MiB (8%)
Title : Stereo
Language : English
Default : No
Forced : No

En realidad se trata de un Dual Italiano/Inglés

jail
 
Mensajes: 5452
Registrado: 18 Oct 2012, 15:34
Agradecido : 6013 veces
Agradecimiento recibido: 1525 veces

Re: Solamente Nero (Antonio Bido, 1978) BDRip 720p VOSE

Mensaje por jail » 11 Ene 2019, 22:08

Se agradece, hammett y Keller.

jorobado7
 
Mensajes: 1479
Registrado: 16 Oct 2012, 15:08
Agradecido : 318 veces
Agradecimiento recibido: 1545 veces

Re: Solamente Nero (Antonio Bido, 1978) BDRip 720p VOSE

Mensaje por jorobado7 » 11 Ene 2019, 23:21

gracias a ambos, keller y hammett.

Avatar de Usuario
sete
 
Mensajes: 3467
Registrado: 22 Dic 2012, 16:10
Agradecido : 87 veces
Agradecimiento recibido: 881 veces

Re: Solamente Nero (Antonio Bido, 1978) BDRip 720p VOSE

Mensaje por sete » 11 Ene 2019, 23:22

Muchas gracias, Professor Keller y hammett.
:hi:
Este mundo está traicionando a la vida.
José Luis Sampedro

Avatar de Usuario
Graveland
 
Mensajes: 3044
Registrado: 22 Nov 2012, 15:30
Agradecido : 1369 veces
Agradecimiento recibido: 3122 veces

Re: Solamente Nero (Antonio Bido, 1978) BDRip 720p VOSE

Mensaje por Graveland » 12 Ene 2019, 19:14

Muchas gracias, Professor Keller y hammett.

Avatar de Usuario
Phillys
 
Mensajes: 1003
Registrado: 16 Oct 2012, 15:47
Ubicación: Vigo
Agradecido : 314 veces
Agradecimiento recibido: 329 veces

Re: Solamente Nero (Antonio Bido, 1978) BDRip 720p VOSE

Mensaje por Phillys » 18 Ene 2019, 08:41

Ayer ví esta peli.
Que el Señor esté con vosotros.
-Owen está muerto.
-Entonces ya nunca podré librarme de él.

Responder

Volver a “Largos Modernos”