Signore e signori, buonanotte(VV.DD, 1976) DVDRip Dual esp-ita

Puntuación
5/10
1 voto

Moderador: Monsieur Lange

Responder
montagut
 
Mensajes: 343
Registrado: 04 Mar 2013, 23:16
Agradecido : 115 veces
Agradecimiento recibido: 1177 veces

Italia Signore e signori, buonanotte(VV.DD, 1976) DVDRip Dual esp-ita

Mensaje por montagut » 13 Sep 2018, 12:55

Buenas noches, señoras y señores


Imagen

IMDB

Filmaffinity


TÍTULO ORIGINAL: Signore e signori, buonanotte
DIRECTOR: Luigi Comencini, Nanni Loy, Luigi Magni, Mario Monicelli, Ettore Scola
GUION: Leonardo Benvenuti, Luigi Comencini, Piero De Bernardi, Agenore Incrocci,
Nanni Loy, Ruggero Maccari, Luigi Magni, Ugo Pirro, Furio Scarpelli, Ettore Scola
GÉNERO: Comedia | Película de episodios
AÑO: 1976
PAÍS: Italia
MÚSICA: Lucio Dalla, Giuseppe Mazzucca, Nicola Samale, Antonello Venditti
FOTOGRAFÍA: Claudio Ragona


REPARTOMarcello Mastroianni, Ugo Tognazzi, Nino Manfredi, Vittorio Gassman, Felice Andreasi, Gianfranco Barra, Andréa Ferréol, Monica Guerritore, Lucretia Love, Paolo Villaggio

SINOPSISEl canal TG3 tiene como presentador a Paolo Fiume (Marcello Mastroianni) y durante la emisión de un telediario las noticias van desde la información del secuestro de un empresario, que ha echado las cuentas para que sus obreros paguen el rescate; hasta la entrevista con un ministro corrupto, que defiende a capa y espada su posición inmoral. También la noticia sobre una bomba inexistente, aunque al final... El suicidio de un niño napolitano o los problemas de un general dentro de un baño antes de un importante desfile militar también son materia informativa. Y como no, un concurso donde gana el que más desgracias haya sufrido, y para finalizar con un conclave para elegir un nuevo Papa.

CAPTURAS DE LA COPIA
ImagenImagen
ImagenImagen
ImagenImagen


eD2K link Buenas noches. señoras y señores (1976) DVDrip dual.avi [1.49 Gb] 

eD2K link Buenas noches. señoras y señores (1976) DVDrip dual.srt [9.5 Kb] 

NOTA: Los subtitulos son para un par de escenas que no están dobladas (min 44 y 1h14m), en opensubtitles y subdivx hay varios subtitulos completos, pero ninguno ajusta con esta copia




DATOS TÉCNICOS

Código: Seleccionar todo

General
Complete name :Buenas noches. señoras y señores (1976) DVDrip dual.avi
Format : AVI
Format/Info : Audio Video Interleave
File size : 1.49 GiB
Duration : 1 h 51 min
Overall bit rate : 1 903 kb/s

Video
ID : 0
Format : MPEG-4 Visual
Format profile : Advanced Simple@L4
Format settings, BVOP : 2
Format settings, QPel : No
Format settings, GMC : No warppoints
Format settings, Matrix : Default (H.263)
Codec ID : XVID
Codec ID/Hint : XviD
Duration : 1 h 51 min
Bit rate : 1 374 kb/s
Width : 720 pixels
Height : 576 pixels
Display aspect ratio : 16:9
Frame rate : 25.000 FPS
Standard : PAL
Color space : YUV
Chroma subsampling : 4:2:0
Bit depth : 8 bits
Scan type : Progressive
Compression mode : Lossy
Bits/(Pixel*Frame) : 0.133
Stream size : 1.07 GiB (72%)
Writing library : XviD 64

Audio #1
ID : 1
Format : AC-3
Format/Info : Audio Coding 3
Format settings, Endianness : Big
Codec ID : 2000
Duration : 1 h 51 min
Bit rate mode : Constant
Bit rate : 256 kb/s
Channel(s) : 2 channels
Channel positions : Front: L R
Sampling rate : 48.0 kHz
Frame rate : 31.250 FPS (1536 SPF)
Bit depth : 16 bits
Compression mode : Lossy
Stream size : 205 MiB (13%)
Alignment : Aligned on interleaves
Interleave, duration : 32 ms (0.80 video frame)
Service kind : Complete Main

Audio #2
ID : 2
Format : AC-3
Format/Info : Audio Coding 3
Format settings, Endianness : Big
Codec ID : 2000
Duration : 1 h 51 min
Bit rate mode : Constant
Bit rate : 256 kb/s
Channel(s) : 2 channels
Channel positions : Front: L R
Sampling rate : 48.0 kHz
Frame rate : 31.250 FPS (1536 SPF)
Bit depth : 16 bits
Compression mode : Lossy
Stream size : 205 MiB (13%)
Alignment : Aligned on interleaves
Interleave, duration : 32 ms (0.80 video frame)
Service kind : Complete Main

Avatar de Usuario
sete
 
Mensajes: 4247
Registrado: 22 Dic 2012, 16:10
Agradecido : 166 veces
Agradecimiento recibido: 1230 veces

Re: Signore e signori, buonanotte(VV.DD, 1976) DVDRip Dual esp-ita

Mensaje por sete » 13 Sep 2018, 15:38

Muchas gracias, montagut.
:hi:
Este mundo está traicionando a la vida.
José Luis Sampedro

Avatar de Usuario
oestevez
 
Mensajes: 217
Registrado: 04 Oct 2012, 12:56
Ubicación: Argentina
Agradecido : 84 veces
Agradecimiento recibido: 40 veces

Re: Signore e signori, buonanotte(VV.DD, 1976) DVDRip Dual esp-ita

Mensaje por oestevez » 13 Sep 2018, 15:55

Muchas gracias montagut, renovaremos copia.

:hi:

Avatar de Usuario
tonapar1
 
Mensajes: 4255
Registrado: 16 Oct 2012, 20:19
Agradecido : 1081 veces
Agradecimiento recibido: 1204 veces

Re: Signore e signori, buonanotte(VV.DD, 1976) DVDRip Dual esp-ita

Mensaje por tonapar1 » 13 Sep 2018, 20:05

Muchas gracias por el ripeo a montagut. Un saludo.

jail
 
Mensajes: 6244
Registrado: 18 Oct 2012, 15:34
Agradecido : 6835 veces
Agradecimiento recibido: 1959 veces

Re: Signore e signori, buonanotte(VV.DD, 1976) DVDRip Dual esp-ita

Mensaje por jail » 13 Sep 2018, 20:51

Gracias montagut.

Avatar de Usuario
eulsus
 
Mensajes: 1860
Registrado: 08 Abr 2015, 01:14
Ubicación: La Palma
Agradecido : 2185 veces
Agradecimiento recibido: 2651 veces

Re: Signore e signori, buonanotte(VV.DD, 1976) DVDRip Dual esp-ita

Mensaje por eulsus » 14 Sep 2018, 08:18

Buenas, Montagut, estuve anoche "trajinando" un poco con los subtítulos y la verdad es que tienen mala pinta.
Así en una primera visual, me dio la sensación que requerirán de una sincronización prácticamente línea a línea. :pse:
Imagen
Antonio García-Trevijano Forte (1927-2018)
"Para que yo sea libre, todos tienen que ser libres"

Abstención activa hasta que haya Libertad Colectiva

Avatar de Usuario
droid
 
Mensajes: 8132
Registrado: 12 Sep 2012, 03:37
Agradecido : 4641 veces
Agradecimiento recibido: 6980 veces

Re: Signore e signori, buonanotte(VV.DD, 1976) DVDRip Dual esp-ita

Mensaje por droid » 15 Sep 2018, 05:40

Muchas gracias, Montagut. :genial:

Saludos. :hi:

Avatar de Usuario
yojimbo
 
Mensajes: 9152
Registrado: 18 Oct 2012, 14:25
Agradecido : 9139 veces
Agradecimiento recibido: 2272 veces

Re: Signore e signori, buonanotte(VV.DD, 1976) DVDRip Dual esp-ita

Mensaje por yojimbo » 29 Sep 2018, 17:45

Muchas gracias, montagut.

Responder

Volver a “Largos Modernos”