Mary Poppins (Robert Stevenson, 1964) BDRip 720p Dual SE-I

Puntuación
6,2/10
5 votos

Moderador: Monsieur Lange

Responder
Avatar de Usuario
DCINE
 
Mensajes: 1339
Registrado: 30 Jul 2016, 20:09
Agradecido : 831 veces
Agradecimiento recibido: 2271 veces

Estados Unidos Mary Poppins (Robert Stevenson, 1964) BDRip 720p Dual SE-I

Mensaje por DCINE » 28 Dic 2017, 09:29

Mary Poppins
1964

Imagen

ImagenImagen


DIRECTOR: Robert Stevenson
PRODUCTORA: Walt Disney Productions
GUIÓN: Bill Walsh, Don DaGradi (Historia: P.L. Travers)
MÚSICA: Richard M. Sherman, Robert B. Sherman
FOTOGRAFÍA: Edward Colman



ARGUMENTO Reinado de Eduardo VII (1901-1910). La vida de una familia inglesa formada por un padre banquero, una madre sufragista y dos niños rebeldes -que pretenden llamar la atención de sus padres haciendo la vida imposible a todas las niñeras-, se verá alterada con la llegada de Mary Poppins, una extravagante institutriz que baja de las nubes empleando su paraguas como paracaídas. Debut y Oscar para Julie Andrews en este clásico del cine familiar que en su día batió récords de taquilla. Una niñera mágica y canciones pegadizas que harán las delicias de los niños de la casa. (FILMAFFINITY) IMDB: http://www.imdb.com/title/tt0058331/

Doblaje Cines 1965: http://www.eldoblaje.com/datos/FichaPelicula.asp?id=60

Reparto: Julie Andrews, Dick van Dyke, David Tomlinson, Glynis Johns, Ed Wynn, Hermione Baddeley, Karen Dotrice, Elsa Lanchester, Arthur Treacher, Reginald Owen, Matthew Garber


Datos Técnicos:

[code]General:

Complete name : 1964 Mary Poppins (Robert Stevenson, 1964) BDRip 720p Dual (Spa (Doblaje Cines 1965)-Eng) SE-I by araubi (proteinicos.es).mkv
Format : Matroska
Format version : Version 2
File size : 5.90 GiB
Duration : 2h 19mn
Overall bit rate mode : Variable
Overall bit rate : 6 064 Kbps
Encoded date : UTC 2013-12-05 07:43:59
Writing application : mkvmerge v4.4.0 ('Die Wiederkehr') realizado en Oct 31 2010 21:52:48
Writing library : libebml v1.0.0 + libmatroska v1.0.0

Video
ID : 1
Format : AVC
Format/Info : Advanced Video Codec
Format profile : High@L4.1
Format settings, CABAC : Yes
Format settings, ReFrames : 3 frames
Codec ID : V_MPEG4/ISO/AVC
Duration : 2h 19mn
Bit rate mode : Variable
Bit rate : 5 175 Kbps
Maximum bit rate : 15.0 Mbps
Width : 1 200 pixels
Height : 720 pixels
Display aspect ratio : 1.667
Frame rate : 23.976 fps
Color space : YUV
Chroma subsampling : 4:2:0
Bit depth : 8 bits
Scan type : Progressive
Bits/(Pixel*Frame) : 0.250
Stream size : 4.91 GiB (83%)
Writing library : x264 core 138 r2358 9e941d1
Encoding settings : cabac=1 / ref=4 / deblock=1:0:0 / analyse=0x3:0x133 / me=umh / subme=9 / psy=1 / psy_rd=1.00:0.25 / mixed_ref=1 / me_range=16 / chroma_me=1 / trellis=2 / 8x8dct=1 / cqm=0 / deadzone=6,6 / fast_pskip=1 / chroma_qp_offset=-4 / threads=6 / lookahead_threads=1 / sliced_threads=0 / slices=4 / nr=0 / decimate=0 / interlaced=0 / bluray_compat=0 / constrained_intra=0 / bframes=3 / b_pyramid=1 / b_adapt=2 / b_bias=0 / direct=3 / weightb=1 / open_gop=0 / weightp=0 / keyint=23 / keyint_min=1 / scenecut=40 / intra_refresh=0 / rc_lookahead=23 / rc=2pass / mbtree=1 / bitrate=5175 / ratetol=1.0 / qcomp=0.80 / qpmin=0 / qpmax=51 / qpstep=4 / cplxblur=20.0 / qblur=0.5 / vbv_maxrate=15000 / vbv_bufsize=15000 / nal_hrd=vbr / ip_ratio=1.10 / aq=1:0.50
Language : English
Default : Yes
Forced : No
Color primaries : BT.709-5, BT.1361, IEC 61966-2-4, SMPTE RP177
Transfer characteristics : BT.709-5, BT.1361
Matrix coefficients : BT.709-5, BT.1361, IEC 61966-2-4 709, SMPTE RP177

Audio #1
ID : 2
Format : AC-3
Format/Info : Audio Coding 3
Mode extension : CM (complete main)
Codec ID : A_AC3
Duration : 2h 19mn
Bit rate mode : Constant
Bit rate : 448 Kbps
Channel(s) : 6 channels
Channel positions : Front: L C R, Side: L R, LFE
Sampling rate : 48.0 KHz
Bit depth : 16 bits
Compression mode : Lossy
Stream size : 446 MiB (7%)
Language : Spanish
Default : Yes
Forced : No

Audio #2
ID : 3
Format : AC-3
Format/Info : Audio Coding 3
Mode extension : CM (complete main)
Codec ID : A_AC3
Duration : 2h 19mn
Bit rate mode : Constant
Bit rate : 448 Kbps
Channel(s) : 6 channels
Channel positions : Front: L C R, Side: L R, LFE
Sampling rate : 48.0 KHz
Bit depth : 16 bits
Compression mode : Lossy
Stream size : 446 MiB (7%)
Language : English
Default : No
Forced : No

Text #1
ID : 4
Format : UTF-8
Codec ID : S_TEXT/UTF8
Codec ID/Info : UTF-8 Plain Text
Language : Spanish
Default : No
Forced : No

Text #2
ID : 5
Format : UTF-8
Codec ID : S_TEXT/UTF8
Codec ID/Info : UTF-8 Plain Text
Language : English
Default : No
Forced : No
[/code]



Capturas:

ImagenImagen
ImagenImagen
ImagenImagen
ImagenImagen
ImagenImagen


Enlace: (Ripeo de araubi en proteinicos, muchas gracias)

eD2K link 1964 Mary Poppins (Robert Stevenson, 1964) BDRip 720p Dual (Spa (Doblaje Cines 19...teinicos.es).mkv [5.90 Gb] 

jail
 
Mensajes: 4863
Registrado: 18 Oct 2012, 15:34
Agradecido : 5370 veces
Agradecimiento recibido: 1218 veces

Re: Mary Poppins (Robert Stevenson, 1964) BDRip 720p Dual SE-I

Mensaje por jail » 28 Dic 2017, 10:17

Gracias, DCINE y araubi. Preciosa fantasía.

Avatar de Usuario
Guiller3
 
Mensajes: 342
Registrado: 12 May 2013, 03:58
Ubicación: Si eres mujer, búscame en tu corazón. Si eres hombre, me hallarás en tu cabeza.
Agradecimiento recibido: 140 veces

Re: Mary Poppins (Robert Stevenson, 1964) BDRip 720p Dual SE-I

Mensaje por Guiller3 » 28 Dic 2017, 14:51

Un magnífico motivo para reunir a la familia en torno a una película durante estas fiestas. "Mary Poppins" es estupenda.

Gracias mil, DCINE y araubi.

xeneise007
 
Mensajes: 760
Registrado: 08 Ene 2013, 12:19
Ubicación: Reino de Aragón
Agradecido : 910 veces
Agradecimiento recibido: 181 veces

Re: Mary Poppins (Robert Stevenson, 1964) BDRip 720p Dual SE-I

Mensaje por xeneise007 » 29 Dic 2017, 06:34

Gracias Dcine, mejorando copia. :hi:

Avatar de Usuario
yojimbo
 
Mensajes: 7442
Registrado: 18 Oct 2012, 14:25
Agradecido : 6881 veces
Agradecimiento recibido: 1422 veces

Re: Mary Poppins (Robert Stevenson, 1964) BDRip 720p Dual SE-I

Mensaje por yojimbo » 01 Ene 2018, 23:09

Muchas gracias, DCINE y araubi.

Responder

Volver a “Largos Modernos”