The Pumpkin Eater (Jack Clayton, 1964) BDRip 720p Dual SE

Puntuación
Sin
puntuar

Siempre estoy sola

Moderador: Monsieur Lange

Responder
Avatar de Usuario
DMMD
 
Mensajes: 554
Registrado: 16 Oct 2012, 15:35
Agradecido : 287 veces
Agradecimiento recibido: 2124 veces

Reino Unido The Pumpkin Eater (Jack Clayton, 1964) BDRip 720p Dual SE

Mensaje por DMMD » 24 Dic 2017, 16:32

The Pumpkin Eater

(Jack Clayton, 1964)




Imagen

Imagen



Siempre estoy sola


Título original The Pumpkin Eater
Año 1964
Duración 109 min
País Imagen
Dirección Jack Clayton
Guion Harold Pinter (Novela: Penelope Mortimer)
Música Georges Delerue
Fotografía Oswald Morris (B&W)
Reparto
Anne Bancroft, Peter Finch, James Mason, Cedric Hardwicke, Rosalind Atkinson, Maggie Smith, Eric Porter, Richard Johnson

Productora Romulus Films
Género Drama
Sinopsis
Jo, una mujer que se ha casado varias veces, parece que con su último marido ha encontrado por fin la estabilidad que necesitaba; pero la calma y la serenidad que disfruta podrían ser engañosas. (FILMAFFINITY)

Premios
1964: Oscar: Nominada a Mejor actriz (Anne Bancroft)
1964: Globo de Oro: Mejor actriz drama (Anne Bancroft)
1964: Festival de Cannes: Mejor actriz (Anne Bancroft)
1964: Premios BAFTA: 4 premios, incl. a Mejor actriz extranjera (Bancroft). 7 nominaciones.







Vídeo:

Blu-ray Indicator Series | Limited Edition Vs Encode 72op

Imagen Imagen Imagen Imagen Imagen Imagen Imagen Imagen Imagen Imagen Imagen Imagen


[code]General
Unique ID : 189020371047460442528605893560268112540 (0x8E33FFD027C6E7FCBE5B8765E1FA429C)
Complete name : D:\Incoming\1964-The.Pumpkin.Eater.BR.x264.720p.AAC[DMMD].mkv
Format : Matroska
Format version : Version 4 / Version 2
File size : 10.3 GiB
Duration : 1 h 49 min
Overall bit rate : 13.4 Mb/s
Movie name : 1964-The.Pumpkin.Eater.BR.x264.720p.AAC[DMMD]
Encoded date : UTC 2017-12-24 15:14:35
Writing application : mkvmerge v19.0.0 ('Brave Captain') 64-bit
Writing library : libebml v1.3.5 + libmatroska v1.4.8
Attachments : 1 / 2

Video
ID : 1
Format : AVC
Format/Info : Advanced Video Codec
Format profile : High@L4.1
Format settings : CABAC / 9 Ref Frames
Format settings, CABAC : Yes
Format settings, RefFrames : 9 frames
Codec ID : V_MPEG4/ISO/AVC
Duration : 1 h 49 min
Bit rate : 13.1 Mb/s
Width : 1 280 pixels
Height : 692 pixels
Display aspect ratio : 1.85:1
Frame rate mode : Constant
Frame rate : 23.976 (24000/1001) FPS
Color space : YUV
Chroma subsampling : 4:2:0
Bit depth : 8 bits
Scan type : Progressive
Bits/(Pixel*Frame) : 0.618
Stream size : 10.1 GiB (98%)
Writing library : x264 core 152 r2851kMod ba24899
Encoding settings : cabac=1 / ref=9 / deblock=1:-3:-3 / analyse=0x3:0x133 / me=umh / subme=11 / psy=1 / fade_compensate=0.00 / psy_rd=0.95:0.00 / mixed_ref=1 / me_range=24 / chroma_me=1 / trellis=2 / 8x8dct=1 / cqm=0 / deadzone=21,11 / fast_pskip=0 / chroma_qp_offset=-2 / threads=6 / lookahead_threads=1 / sliced_threads=0 / nr=0 / decimate=0 / interlaced=0 / bluray_compat=0 / constrained_intra=0 / bframes=11 / b_pyramid=2 / b_adapt=2 / b_bias=0 / direct=3 / weightb=1 / open_gop=0 / weightp=2 / keyint=250 / keyint_min=23 / scenecut=40 / intra_refresh=0 / rc=crf / mbtree=0 / crf=17.6000 / qcomp=0.58 / qpmin=0 / qpmax=69 / qpstep=4 / ip_ratio=1.35 / pb_ratio=1.25 / aq=3:0.45
Language : English
Default : Yes
Forced : No

Audio #1
ID : 2
Format : AAC
Format/Info : Advanced Audio Codec
Format profile : LC
Codec ID : A_AAC-2
Duration : 1 h 49 min
Bit rate : 132 kb/s
Channel(s) : 1 channel
Channel positions : Front: C
Sampling rate : 48.0 kHz
Frame rate : 46.875 FPS (1024 SPF)
Compression mode : Lossy
Delay relative to video : 9 ms
Stream size : 102 MiB (1%)
Language : English
Default : Yes
Forced : No

Audio #2
ID : 3
Format : AAC
Format/Info : Advanced Audio Codec
Format profile : LC
Codec ID : A_AAC-2
Duration : 1 h 49 min
Bit rate : 120 kb/s
Channel(s) : 2 channels
Channel positions : Front: L R
Sampling rate : 48.0 kHz
Frame rate : 46.875 FPS (1024 SPF)
Compression mode : Lossy
Delay relative to video : 645 ms
Stream size : 94.5 MiB (1%)
Language : Spanish
Default : No
Forced : No

Text #1
ID : 4
Format : UTF-8
Codec ID : S_TEXT/UTF8
Codec ID/Info : UTF-8 Plain Text
Duration : 1 h 43 min
Bit rate : 59 b/s
Count of elements : 1305
Stream size : 44.9 KiB (0%)
Language : Spanish
Default : Yes
Forced : No

Text #2
ID : 5
Format : UTF-8
Codec ID : S_TEXT/UTF8
Codec ID/Info : UTF-8 Plain Text
Duration : 1 h 47 min
Bit rate : 65 b/s
Count of elements : 1416
Stream size : 51.9 KiB (0%)
Title : SDH
Language : English
Default : No
Forced : No

Text #3
ID : 6
Format : PGS
Muxing mode : zlib
Codec ID : S_HDMV/PGS
Codec ID/Info : Picture based subtitle format used on BDs/HD-DVDs
Duration : 1 h 47 min
Bit rate : 37.6 kb/s
Count of elements : 2832
Stream size : 28.9 MiB (0%)
Title : SDH
Language : English
Default : No
Forced : No

Menu
00:00:00.000 : en:00:00:00.000
00:08:25.338 : en:00:08:25.338
00:17:17.787 : en:00:17:17.787
00:25:31.071 : en:00:25:31.071
00:38:02.530 : en:00:38:02.530
00:48:33.244 : en:00:48:33.244
00:53:35.504 : en:00:53:35.504
01:00:44.808 : en:01:00:44.808
01:08:25.393 : en:01:08:25.393
01:18:33.375 : en:01:18:33.375
01:29:22.607 : en:01:29:22.607
01:39:47.481 : en:01:39:47.481
[/code]


REVIEW


Imagen




Encode 720p Vs Dvd Sony (Ntsc) Vs Dvd Sony (Pal)

Imagen
Imagen
Imagen



Imagen


Audio y sub:

- Para la V.O. audio AAC, pasado del Blu-ray. (LPCM Audio 1.0)

- Para la sincro, audio extraído de un Dvdrip dual que circula por la mula, gracias por compartirlo. 8)

- Para los sub en castellano los compartidos por fku2136, imagino que serán lo que tradujo en su día john_colicos. (Gracias a ambos :wink: )

- He incluido también los sub propios del bluray, en un par de formatos.



CAPTURAS

Imagen
Imagen
Imagen
Imagen
Imagen
Imagen
Imagen

Imagen



Enlaces de descarga

Imagen


eD2K link 1964-The.Pumpkin.Eater.BR.x264.720p.AAC[DMMD].mkv [10.27 Gb] 

Avatar de Usuario
tuscarola
 
Mensajes: 1796
Registrado: 25 Dic 2012, 20:38
Ubicación: En el Tarragonés
Agradecido : 583 veces
Agradecimiento recibido: 686 veces

Re: The Pumpkin Eater (Jack Clayton, 1964) BDRip 720p Dual SE

Mensaje por tuscarola » 24 Dic 2017, 18:17

Muchas gracias DMMD. Tengo que esperar para hacer hueco con semejante "pedrusco".
Imagen
Imagen
Imagen
Imagen
In Memoriam:
Juan Manuel Soriano
Carmen Lombarte
Maribel Casals
Felipe Peña
Alfonso Santigosa
Rafael Navarro

Avatar de Usuario
gatatitania
 
Mensajes: 3758
Registrado: 16 Oct 2012, 18:27
Ubicación: Gatatitania es un gato hambriento, superviviente del planeta gatatitania...
Agradecido : 2022 veces
Agradecimiento recibido: 869 veces

Re: The Pumpkin Eater (Jack Clayton, 1964) BDRip 720p Dual SE

Mensaje por gatatitania » 24 Dic 2017, 19:07

¡Gracias, DMMD! :aplauso: :aplauso: :aplauso:

Avatar de Usuario
janca
 
Mensajes: 2552
Registrado: 16 Oct 2012, 16:39
Agradecido : 6107 veces
Agradecimiento recibido: 100 veces

Re: The Pumpkin Eater (Jack Clayton, 1964) BDRip 720p Dual SE

Mensaje por janca » 24 Dic 2017, 20:07

Para estos ''pedruscos'' yo siempre tengo hueco. Gracias DMMD

Avatar de Usuario
yojimbo
 
Mensajes: 7431
Registrado: 18 Oct 2012, 14:25
Agradecido : 6870 veces
Agradecimiento recibido: 1419 veces

Re: The Pumpkin Eater (Jack Clayton, 1964) BDRip 720p Dual SE

Mensaje por yojimbo » 25 Dic 2017, 13:09

Muchas gracias, DMMD.

mvega00
 
Mensajes: 7
Registrado: 29 Dic 2012, 12:16

Re: The Pumpkin Eater (Jack Clayton, 1964) BDRip 720p Dual SE

Mensaje por mvega00 » 25 Dic 2017, 13:19

No la conocía. Gracias por el regalo de Navidad, DMMD.

Avatar de Usuario
victor1949
 
Mensajes: 1122
Registrado: 17 Oct 2012, 08:13
Ubicación: Palamós / Baix Empodá
Agradecido : 102 veces
Agradecimiento recibido: 169 veces

Re: The Pumpkin Eater (Jack Clayton, 1964) BDRip 720p Dual SE

Mensaje por victor1949 » 25 Dic 2017, 17:33

Muchísimas grácias, DMMD.

Avatar de Usuario
tonapar1
 
Mensajes: 2993
Registrado: 16 Oct 2012, 20:19
Agradecido : 672 veces
Agradecimiento recibido: 602 veces

Re: The Pumpkin Eater (Jack Clayton, 1964) BDRip 720p Dual SE

Mensaje por tonapar1 » 04 Ene 2018, 17:27

Muchas gracias por el ripeo y los subs a dmmd y compañia. Un saludo a todos ellos.

Responder

Volver a “Largos Modernos”