Love with the Proper Stranger (Mulligan, 1963) BDRip 720p VOSE

Puntuación
6/10
1 voto

Amores con un extraño.

Moderadores: Monsieur Lange, jotarapidup

Responder
felipemarlou
 
Mensajes: 1356
Registrado: 10 Ago 2013, 00:02
Agradecido : 644 veces
Agradecimiento recibido: 1974 veces

Estados Unidos Love with the Proper Stranger (Mulligan, 1963) BDRip 720p VOSE

Mensaje por felipemarlou » 23 Sep 2017, 16:04

Imagen

Love with the Proper Stranger (1963)
Amores con un extraño

País: EE.UU.
Duración: 102 minutos
B/N

Director: Robert Mulligan
Guión: Arnold Schulman
Productor: Alan J. Pakula
Director de fotografía: Milton R. Krasner
Música: Elmer Bernstein

Más información

Reparto: Natalie Wood, Steve McQueen, Edie Adams, Herschel Bernardi, Anne Hegira, Harvey Lembeck, Mario Badolati, Penny Santon, Elena Karam, Virginia Vincent, Nina Varela, E. Nick Alexander, Marilyn Chris, Augusta Ciolli, Wolfe Barzell, Tom Bosley, Loraine Abate, Jean Alexander, John Aniston, Val Avery, Richard Bowler, Leonard Bremen, Richard S. Castellano, Lou David, Vince Deadrick Sr., Richard Dysart, Michael Enserro, Arlene Golonka, Louis Guss, Sam Harris, Lou Herbert, Henry Howard, Daniel Keough, Frank Marth, Barney Martin, Nobu McCarthy, Tony Mordente, Richard Mulligan, Zack Norman, Ann Palmer, Paul B. Price, Vic Tayback, Dyanne Thorne, Tracee Towers, Keith Worthey

Sinopsis y comentarios: Angie Rossini (Natalie Wood) es una inocente italiana que vive con su madre y sus hermanos, y que trabaja en Macy's. Un fin de semana en una cabaña conoce a Rocky (McQueen), un músico que la deja embarazada. Angie lo buscará para hablarle del embarazo y de su intención de abortar. El muchacho se encarga de buscar un médico y de ayudarla económicamente pero, mientras tanto, se van enamorando y, poco a poco, nace en ellos el deseo de tener el hijo. (FILMAFFINITY

Capturas:

Imagen

Datos técnicos:
[spoiler][code]General
Love.with.the.Proper.Stranger.1963.720p.BluRay.x264-SiNNERS (Eng&Span Subt).mkv
Format : Matroska
Format version : Version 4 / Version 2
File size : 4.37 GiB
Duration : 1h 40mn
Overall bit rate : 6 236 Kbps
Encoded date : UTC 2017-09-23 12:14:04
Writing application : mkvmerge v11.0.0 ('Alive') 64bit
Writing library : libebml v1.3.4 + libmatroska v1.4.5
DURATION : 01:40:07.870000000
NUMBER_OF_FRAMES : 1043
NUMBER_OF_BYTES : 33968
_STATISTICS_WRITING_APP : mkvmerge v11.0.0 ('Alive') 64bit
_STATISTICS_WRITING_DATE_UTC : 2017-09-23 12:14:04
_STATISTICS_TAGS : BPS DURATION NUMBER_OF_FRAMES NUMBER_OF_BYTES

Video
ID : 1
Format : AVC
Format/Info : Advanced Video Codec
Format profile : High@L4.1
Format settings, CABAC : Yes
Format settings, ReFrames : 9 frames
Codec ID : V_MPEG4/ISO/AVC
Duration : 1h 40mn
Bit rate : 4 724 Kbps
Width : 1 280 pixels
Height : 696 pixels
Display aspect ratio : 1.85:1
Frame rate mode : Constant
Frame rate : 23.976 fps
Color space : YUV
Chroma subsampling : 4:2:0
Bit depth : 8 bits
Scan type : Progressive
Bits/(Pixel*Frame) : 0.221
Stream size : 3.23 GiB (74%)
Writing library : x264 core 152 r2851 ba24899
Encoding settings : cabac=1 / ref=9 / deblock=1:-3:-3 / analyse=0x3:0x113 / me=umh / subme=8 / psy=1 / psy_rd=1.00:0.00 / mixed_ref=1 / me_range=16 / chroma_me=1 / trellis=2 / 8x8dct=1 / cqm=0 / deadzone=21,11 / fast_pskip=0 / chroma_qp_offset=-2 / threads=18 / lookahead_threads=3 / sliced_threads=0 / nr=0 / decimate=1 / interlaced=0 / bluray_compat=0 / constrained_intra=0 / bframes=3 / b_pyramid=2 / b_adapt=1 / b_bias=0 / direct=1 / weightb=1 / open_gop=0 / weightp=2 / keyint=250 / keyint_min=23 / scenecut=40 / intra_refresh=0 / rc_lookahead=40 / rc=2pass / mbtree=1 / bitrate=4724 / ratetol=1.0 / qcomp=0.60 / qpmin=0 / qpmax=69 / qpstep=4 / cplxblur=20.0 / qblur=0.5 / ip_ratio=1.40 / aq=1:1.00
Language : English
Default : Yes
Forced : No
DURATION : 01:40:19.097000000
NUMBER_OF_FRAMES : 144314
NUMBER_OF_BYTES : 3554736343
_STATISTICS_WRITING_APP : mkvmerge v11.0.0 ('Alive') 64bit
_STATISTICS_WRITING_DATE_UTC : 2017-09-23 12:14:04
_STATISTICS_TAGS : BPS DURATION NUMBER_OF_FRAMES NUMBER_OF_BYTES

Audio
ID : 2
Format : DTS
Format/Info : Digital Theater Systems
Mode : 16
Format settings, Endianness : Big
Codec ID : A_DTS
Duration : 1h 40mn
Bit rate mode : Constant
Bit rate : 1 509 Kbps
Channel(s) : 2 channels
Channel positions : Front: L R
Sampling rate : 48.0 KHz
Bit depth : 24 bits
Compression mode : Lossy
Stream size : 1.06 GiB (24%)
Language : English
Default : Yes
Forced : No

Text #1
ID : 3
Format : UTF-8
Codec ID : S_TEXT/UTF8
Codec ID/Info : UTF-8 Plain Text
Language : English
Default : No
Forced : No

Text #2
ID : 4
Format : UTF-8
Codec ID : S_TEXT/UTF8
Codec ID/Info : UTF-8 Plain Text
Language : Spanish
Default : Yes
Forced : No

Menu
00:00:00.000 : en:00:00:00.000
00:14:03.427 : en:00:14:03.427
00:26:46.439 : en:00:26:46.439
00:35:55.154 : en:00:35:55.154
00:57:22.815 : en:00:57:22.815
01:08:04.039 : en:01:08:04.039
01:15:45.751 : en:01:15:45.751
01:26:53.793 : en:01:26:53.793

[/code][/spoiler]

Una de las mejores pelis de Robert Mulligan.

Upgrade encontrado en el torrent a partir del Bluray. Subtítulos de Letras con correcciones y sincr. de un servidor. Enjoy. :wink:

Imagen


Elinks:

eD2K link Love.with.the.Proper.Stranger.1963.720p.BluRay.x264-SiNNERS (Eng&Span Subt).mkv [4.37 Gb] 

Subtítulos en español e inglés dentro del contenedor del archivo.

Subtítulos en descarga directa:

http://www.subdivx.com/X6XNTEzNTM5X-lov ... -1963.html

Avatar de Usuario
yojimbo
 
Mensajes: 6915
Registrado: 18 Oct 2012, 14:25
Agradecido : 6058 veces
Agradecimiento recibido: 1171 veces

Re: Love with the Proper Stranger (Mulligan, 1963) BDRip 720p VOSE

Mensaje por yojimbo » 23 Sep 2017, 16:37

Muchas gracias, felipemarlou.

Avatar de Usuario
Graveland
 
Mensajes: 2205
Registrado: 22 Nov 2012, 15:30
Agradecido : 368 veces
Agradecimiento recibido: 2274 veces

Re: Love with the Proper Stranger (Mulligan, 1963) BDRip 720p VOSE

Mensaje por Graveland » 23 Sep 2017, 16:48

Muchas gracias, felipemarlou.

Avatar de Usuario
DMMD
 
Mensajes: 524
Registrado: 16 Oct 2012, 15:35
Agradecido : 223 veces
Agradecimiento recibido: 1890 veces

Re: Love with the Proper Stranger (Mulligan, 1963) BDRip 720p VOSE

Mensaje por DMMD » 23 Sep 2017, 17:10

Gracias felipemarlou, me la llevo

Avatar de Usuario
gatatitania
 
Mensajes: 3408
Registrado: 16 Oct 2012, 18:27
Ubicación: Gatatitania es un gato hambriento, superviviente del planeta gatatitania...
Agradecido : 1898 veces
Agradecimiento recibido: 644 veces

Re: Love with the Proper Stranger (Mulligan, 1963) BDRip 720p VOSE

Mensaje por gatatitania » 24 Sep 2017, 03:16

¡Gracias, Felipe! :aplauso: :aplauso: :aplauso:
Cual plaga de langosta

ciberyago
 
Mensajes: 1852
Registrado: 20 Oct 2012, 07:26
Agradecimiento recibido: 149 veces

Re: Love with the Proper Stranger (Mulligan, 1963) BDRip 720p VOSE

Mensaje por ciberyago » 24 Sep 2017, 10:15

Prometedora... Muchas gracias!

Responder

Volver a “Largos Modernos”