Crimen imperfecto (Fernando Fernán Gómez, 1970) SATRip VO

Puntuación
Sin
puntuar

Moderadores: Monsieur Lange, jotarapidup

Responder
Avatar de Usuario
DCINE
 
Mensajes: 1149
Registrado: 30 Jul 2016, 20:09
Agradecido : 711 veces
Agradecimiento recibido: 1736 veces

España Crimen imperfecto (Fernando Fernán Gómez, 1970) SATRip VO

Mensaje por DCINE » 28 Jul 2017, 16:35

Crimen imperfecto
1970

Imagen



DIRECTOR: Fernando Fernán Gómez
PRODUCTORA: Filmayer / Pedro Masó Producciones Cinematográficas
GUIÓN: Pedro Masó, Antonio Vich
MÚSICA: Antón García Abril
FOTOGRAFÍA: Juan Mariné



ARGUMENTO Salomón, un detective privado especializado en asuntos de adulterio, y su fiel ayudante Torcuato, se ven involucrados en un caso criminal. Ambos son testigos de la muerte de uno de sus clientes en su propio despacho, pero, inexplicablemente, el cadáver desaparece antes de que llegue la policía. Entonces deciden averiguar por su cuenta el móvil del crimen para poder encontrar al asesino y esclarecer el caso. (FILMAFFINITY) IMDB: http://www.imdb.com/title/tt0065590/



Reparto: Fernando Fernán Gómez, José Luis López Vázquez, Rosanna Yanni, Jesús Puente, George Rigaud, Gogó Rojo, Álvaro de Luna


Datos Técnicos:

Lástiama que la copia emitida en Somos no respecta el formato original 1:85

Imagen

[code]General:

General
Complete name : Crimen imperfecto (1970) DVBRip Castellano.avi
Format : AVI
Format/Info : Audio Video Interleave
Format profile : OpenDML
File size : 1.35 GiB
Duration : 1h 29mn
Overall bit rate : 2 163 Kbps
Writing application : Lavf51.12.1

Video
ID : 0
Format : xvid
Codec ID : xvid
Duration : 1h 29mn
Bit rate : 2 015 Kbps
Width : 720 pixels
Height : 540 pixels
Display aspect ratio : 4:3
Frame rate : 50.000 fps
Bits/(Pixel*Frame) : 0.104
Stream size : 1.25 GiB (93%)

Audio
ID : 1
Format : MPEG Audio
Format version : Version 1
Format profile : Layer 3
Mode : Joint stereo
Mode extension : MS Stereo
Codec ID : 55
Codec ID/Hint : MP3
Duration : 1h 29mn
Bit rate mode : Constant
Bit rate : 128 Kbps
Channel(s) : 2 channels
Sampling rate : 44.1 KHz
Compression mode : Lossy
Stream size : 81.6 MiB (6%)
Alignment : Aligned on interleaves
Interleave, duration : 26 ms (1.31 video frame)


[/code]




Capturas:

Imagen
Imagen
Imagen
Imagen

Enlace: (Ripeo de Gorgin)

eD2K link Crimen imperfecto (1970) DVBRip Castellano.avi [1.35 Gb] 

Avatar de Usuario
tuscarola
 
Mensajes: 1538
Registrado: 25 Dic 2012, 20:38
Ubicación: En el Tarragonés
Agradecido : 408 veces
Agradecimiento recibido: 498 veces

Re: Crimen imperfecto (Fernando Fernán Gómez, 1970) SATRip VO

Mensaje por tuscarola » 29 Jul 2017, 19:53

Merci DCINE. La bajo pues no la he visto.
Imagen
Imagen
Imagen
Imagen
In Memoriam:
Juan Manuel Soriano
Carmen Lombarte
Maribel Casals
Felipe Peña
Alfonso Santigosa
Rafael Navarro

Avatar de Usuario
tonapar1
 
Mensajes: 2627
Registrado: 16 Oct 2012, 20:19
Agradecido : 641 veces
Agradecimiento recibido: 447 veces

Re: Crimen imperfecto (Fernando Fernán Gómez, 1970) SATRip VO

Mensaje por tonapar1 » 31 Jul 2017, 01:16

Muchas gracias por el ripeo a dcine. Un saludo.

Responder

Volver a “Largos Modernos”