Darling (John Schlesinger, 1965) DVDRip Dual SE

Puntuación
5,8/10
6 votos

Darling

Moderador: Monsieur Lange

Responder
Avatar de Usuario
locotus
 
Mensajes: 906
Registrado: 16 Oct 2012, 18:18
Agradecido : 43 veces
Agradecimiento recibido: 5632 veces

Reino Unido Darling (John Schlesinger, 1965) DVDRip Dual SE

Mensaje por locotus » 11 Oct 2016, 16:00

Darling (1965)
Imagen
Sinopsis
Julie Christie se llevó el Óscar a la mejor actriz al interpretar el frívolo personaje de una joven
y atractiva modelo londinense dispuesta a todo para ascender en la escala social. (FILMAFFINITY)
Premios
1965: 3 Oscars: Actriz (Julie Christie), guión original, vestuario (Ex-aequo). 5 nom.
1965: Globo de Oro: Mejor película extranjera (Samuel Goldwyn Award). 3 nom.
1965: Premios BAFTA: 4 premios incluyendo Mejor actor británico y actriz británica
1965: Círculo de críticos de Nueva York: Mejor película, director y actriz (Christie)
1965: Sindicato de Directores (DGA): Nominada a Mejor director
1965: National Board of Review: Top 10 mejores películas y director

IMDB
Directed by John Schlesinger
Writing Credits: Frederic Raphael ... (screenplay)
Frederic Raphael ... (idea) and
John Schlesinger ... (idea) and
Joseph Janni ... (idea)
Reparto:
Julie Christie ... Diana Scott
Laurence Harvey ... Miles Brand
Dirk Bogarde ... Robert Gold
José Luis de Vilallonga ... Prince Cesare della Romita (as Jose Luis De Villalonga)
Roland Curram ... Malcolm
Basil Henson ... Alec Prosser-Jones
Helen Lindsay ... Felicity Prosser-Jones
Carlo Palmucci ... Curzio della Romita
Dante Posani ... Gino
Umberto Raho ... Palucci
Marika Rivera ... Woman
Alex Scott ... Sean Martin
Ernest Walder ... Kurt
Brian Wilde ... Willett
Pauline Yates ... Estelle Gold
Peter Bayliss ... Lord Grant
Richard Bidlake ... Rupert Crabtree
T.R. Bowen ... Tony Bridges (as Trevor Bowen)
Annette Carell ... Billie Castiglione
Jean Claudio ... Raoul Maxim
Georgina Cookson ... Carlotta Hale
James Cossins ... Basildon
Jane Downs ... Julie (as Jane Downes)

Runtime: 128 min
Sound Mix: Mono (Westrex Recording System)
Color: Black and White
Aspect Ratio: 1.66 : 1

Capturas:
ImagenImagenImagenImagenImagen

ImagenImagenImagenImagenImagen

Datos:

Código: Seleccionar todo

General
Unique ID                                : 182852924919484054339292165895769977501 (0x8990313DFD1B9944AEF32B096C06729D)
Complete name                            : Darling (1965) DVDRip.Dual.mkv
Format                                   : Matroska
Format version                           : Version 4 / Version 2
File size                                : 2.29 GiB
Duration                                 : 2 h 7 min
Overall bit rate                         : 2 569 kb/s
Encoded date                             : UTC 2016-10-10 01:17:18
Writing application                      : mkvmerge v7.9.0 ('Birds') 32bit
Writing library                          : libebml v1.3.1 + libmatroska v1.4.2

Video
ID                                       : 1
Format                                   : AVC
Format/Info                              : Advanced Video Codec
Format profile                           : High@L4.1
Format settings, CABAC                   : Yes
Format settings, ReFrames                : 4 frames
Codec ID                                 : V_MPEG4/ISO/AVC
Duration                                 : 2 h 7 min
Bit rate                                 : 2 275 kb/s
Width                                    : 720 pixels
Height                                   : 432 pixels
Display aspect ratio                     : 5:3
Frame rate mode                          : Constant
Frame rate                               : 23.976 (24000/1001) FPS
Color space                              : YUV
Chroma subsampling                       : 4:2:0
Bit depth                                : 8 bits
Scan type                                : Progressive
Bits/(Pixel*Frame)                       : 0.305
Stream size                              : 2.03 GiB (89%)
Writing library                          : x264 core 148 r2721 72d53ab
Encoding settings                        : cabac=1 / ref=4 / deblock=1:-1:-1 / analyse=0x3:0x133 / me=umh / subme=7 / psy=1 / psy_rd=1.00:0.15 / mixed_ref=1 / me_range=16 / chroma_me=1 / trellis=1 / 8x8dct=1 / cqm=0 / deadzone=21,11 / fast_pskip=1 / chroma_qp_offset=-3 / threads=3 / lookahead_threads=1 / sliced_threads=0 / nr=0 / decimate=1 / interlaced=0 / bluray_compat=0 / constrained_intra=0 / bframes=3 / b_pyramid=2 / b_adapt=2 / b_bias=0 / direct=3 / weightb=1 / open_gop=0 / weightp=2 / keyint=240 / keyint_min=23 / scenecut=40 / intra_refresh=0 / rc_lookahead=60 / rc=2pass / mbtree=1 / bitrate=2275 / ratetol=1.0 / qcomp=0.60 / qpmin=0 / qpmax=69 / qpstep=4 / cplxblur=20.0 / qblur=0.5 / vbv_maxrate=50000 / vbv_bufsize=62500 / nal_hrd=none / filler=0 / ip_ratio=1.40 / aq=1:1.00
Language                                 : English
Default                                  : Yes
Forced                                   : No

Audio #1
ID                                       : 2
Format                                   : AC-3
Format/Info                              : Audio Coding 3
Mode extension                           : CM (complete main)
Format settings, Endianness              : Big
Codec ID                                 : A_AC3
Duration                                 : 2 h 7 min
Bit rate mode                            : Constant
Bit rate                                 : 192 kb/s
Channel(s)                               : 2 channels
Channel positions                        : Front: L R
Sampling rate                            : 48.0 kHz
Frame rate                               : 31.250 FPS (1536 spf)
Compression mode                         : Lossy
Stream size                              : 175 MiB (7%)
Language                                 : English
Default                                  : No
Forced                                   : No

Audio #2
ID                                       : 3
Format                                   : AC-3
Format/Info                              : Audio Coding 3
Mode extension                           : CM (complete main)
Format settings, Endianness              : Big
Codec ID                                 : A_AC3
Duration                                 : 2 h 7 min
Bit rate mode                            : Constant
Bit rate                                 : 96.0 kb/s
Channel(s)                               : 1 channel
Channel positions                        : Front: C
Sampling rate                            : 48.0 kHz
Frame rate                               : 31.250 FPS (1536 spf)
Compression mode                         : Lossy
Stream size                              : 87.5 MiB (4%)
Language                                 : Spanish
Default                                  : No
Forced                                   : No

Text #1
ID                                       : 4
Format                                   : VobSub
Muxing mode                              : zlib
Codec ID                                 : S_VOBSUB
Codec ID/Info                            : Picture based subtitle format used on DVDs
Duration                                 : 2 h 1 min
Bit rate                                 : 1 866 b/s
Count of elements                        : 1301
Stream size                              : 1.62 MiB (0%)
Language                                 : English
Default                                  : No
Forced                                   : No

Text #2
ID                                       : 5
Format                                   : VobSub
Muxing mode                              : zlib
Codec ID                                 : S_VOBSUB
Codec ID/Info                            : Picture based subtitle format used on DVDs
Duration                                 : 2 h 5 min
Bit rate                                 : 1 707 b/s
Count of elements                        : 1320
Stream size                              : 1.53 MiB (0%)
Language                                 : Spanish
Default                                  : No
Forced                                   : No
Subtítulos en inglés y español incluídos en el contenedor MKV,
ambos proceden del DVD. Doblaje español extraído de un archivo descargado por eMule.

Elink:
eD2K link Darling (1965) DVDRip.Dual.mkv [2.29 Gb] 
Última edición por locotus el 12 Oct 2016, 22:48, editado 2 veces en total.
“Si no lees los periódicos estás desinformado”.
Y si los lees estás mal informado”.
Denzel Washington.

Avatar de Usuario
Arthur James Hamp
 
Mensajes: 1834
Registrado: 06 May 2016, 11:47
Agradecido : 2567 veces
Agradecimiento recibido: 2962 veces

Re: Darling (John Schlesinger, 1965) DVDRip Dual SE

Mensaje por Arthur James Hamp » 11 Oct 2016, 16:50

Muchas gracias locotus :aplauso: :aplauso:
"Cuando tu cabeza dice una cosa y toda tu vida dice la otra, la cabeza siempre pierde" (Cayo Largo)

jail
 
Mensajes: 5946
Registrado: 18 Oct 2012, 15:34
Agradecido : 6523 veces
Agradecimiento recibido: 1809 veces

Re: Darling (John Schlesinger, 1965) DVDRip Dual SE

Mensaje por jail » 11 Oct 2016, 17:39

Arthur James Hamp escribió:Muchas gracias locotus :aplauso: :aplauso:

Avatar de Usuario
tonapar1
 
Mensajes: 3956
Registrado: 16 Oct 2012, 20:19
Agradecido : 1002 veces
Agradecimiento recibido: 1083 veces

Re: Darling (John Schlesinger, 1965) DVDRip Dual SE

Mensaje por tonapar1 » 11 Oct 2016, 20:54

Muchas gracias por el ripeo a locotus. Un saludo.

ciberyago
 
Mensajes: 2234
Registrado: 20 Oct 2012, 07:26
Agradecimiento recibido: 331 veces

Re: Darling (John Schlesinger, 1965) DVDRip Dual SE

Mensaje por ciberyago » 12 Oct 2016, 05:30

Muchas gracias

Avatar de Usuario
sete
 
Mensajes: 3863
Registrado: 22 Dic 2012, 16:10
Agradecido : 130 veces
Agradecimiento recibido: 1073 veces

Re: Darling (John Schlesinger, 1965) DVDRip Dual SE

Mensaje por sete » 15 Oct 2016, 08:31

Una buena oportunidad para volver a ver esta película que es una de mis favoritas. Atención al momento bailón entre Julie Christie y Laurence Harvey, una de mis escenas cinéfilas favoritas.
Muchas gracias, locotus.
:hi:
Este mundo está traicionando a la vida.
José Luis Sampedro

Avatar de Usuario
Ted Kaczynski
 
Mensajes: 114
Registrado: 20 Jul 2016, 21:40
Agradecido : 8 veces
Agradecimiento recibido: 18 veces

Re: Darling (John Schlesinger, 1965) DVDRip Dual SE

Mensaje por Ted Kaczynski » 22 Oct 2016, 00:27

Thanks

Avatar de Usuario
yojimbo
 
Mensajes: 8693
Registrado: 18 Oct 2012, 14:25
Agradecido : 8539 veces
Agradecimiento recibido: 2050 veces

Re: Darling (John Schlesinger, 1965) DVDRip Dual SE

Mensaje por yojimbo » 19 Dic 2016, 19:03

Muchas gracias, locotus.

joramor
 
Mensajes: 87
Registrado: 28 Nov 2012, 20:59
Agradecido : 439 veces
Agradecimiento recibido: 13 veces

Re: Darling (John Schlesinger, 1965) DVDRip Dual SE

Mensaje por joramor » 26 Ene 2017, 00:00

Muchas gracias Locotus. Salu2.

oskib
 
Mensajes: 603
Registrado: 16 Oct 2012, 17:37
Ubicación: San Nicolás - Argentina
Agradecido : 484 veces
Agradecimiento recibido: 137 veces

Re: Darling (John Schlesinger, 1965) DVDRip Dual SE

Mensaje por oskib » 02 Mar 2019, 22:42

Gracias, locotus. A ver si estoy a tiempo todavía.

Responder

Volver a “Largos Modernos”