That's Entertainment! (Jack Haley Jr. 1974) DVDRip VOSE

Puntuación
5/10
2 votos

Érase una vez en Hollywood

Moderador: Monsieur Lange

Responder
Avatar de Usuario
locotus
 
Mensajes: 877
Registrado: 16 Oct 2012, 18:18
Agradecido : 42 veces
Agradecimiento recibido: 5546 veces

Estados Unidos That's Entertainment! (Jack Haley Jr. 1974) DVDRip VOSE

Mensaje por locotus » 07 Oct 2016, 20:09

That's Entertainment! (1974)
Imagen

Sinopsis
La Metro Goldwyn Mayer celebró su 50º aniversario presentando una recopilación
de sus mejores clásicos musicales y entrevistando a sus protagonistas. (FILMAFFINITY)

IMDB
Directed by Jack Haley Jr.
Writing Credits: Jack Haley Jr. ... (written by)
Reparto:
Fred Astaire ... Himself - Co-Host / Narrator / Clip from 'The Band Wagon
Bing Crosby ... Himself - Co-Host / Narrator / Clip from 'Going Hollywood'
Gene Kelly ... Himself - Co-Host / Narrator / Clips from 'Take Me Out to the Ball Game' - 'Singin' in the Rain' and 'An American in Paris'
Peter Lawford ... Himself - Co-Host / Narrator - Clip from 1947 version of 'Good News'
Liza Minnelli ... Herself - Co-Host / Narrator / Clip from 'In the Good Old Summertime'
Donald O'Connor ... Himself - Co-Host / Narrator / Clip from 'Singin' in the Rain'
Debbie Reynolds ... Herself - Co-Host / Narrator / Clip from 'Singin' in the Rain'
Mickey Rooney ... Himself - Co-Host / Narrator / Clips from 'Babes in Arms' - 'Girl Crazy' - 'Babes on Broadway'
Frank Sinatra ... Himself - Co-Host
James Stewart ... Himself - Co-Host
Elizabeth Taylor... Herself - Co-Host / Narrator / Clip from 'Cynthia'
June Allyson ... Clip from 'Words and Music' (archive footage)
Kay Armen ... Clip from 'Hit the Deck' (archive footage)
Ray Bolger ... Clips from 'The Wizard of Oz' and 'The Harvey Girls' (archive footage)
Virginia Bruce ... Clip from 'The Great Ziegfeld' (archive footage)
Jack Buchanan ... Clip from 'The Band Wagon' (archive footage)
Leslie Caron ... Lise Bouvier / Gigi (archive footage)
Carleton Carpenter Clip from 'Two Weeks with Love' (archive footage)
Cyd Charisse ... Clip from 'Singin' in the Rain' (archive footage)
Maurice Chevalier.. Clip from 'Gigi' (archive footage)
Joan Crawford ... Clips from 'Hollywood Revue' & 'Dancing Lady' (archive footage)
Virginia Dale ... Clip from 'Idiot's Delight' (archive footage)
Vic Damone ... Clip from 'Hit the Deck' (archive footage)
Jimmy Durante ... Clips from 'Speak Easily' & 'It Happened in Brooklyn' (archive footage)
Deanna Durbin ... Clip from 'Every Sunday' (archive footage)
Buddy Ebsen ... Clip from 'Broadway Melody of 1938' (archive footage)
Nelson Eddy ... Clip from 1936 version of 'Rose Marie' (archive footage)
Cliff Edwards ... Clip from 'Hollywood Revue' (archive footage)
Clark Gable ... Clip from 'Idiot's Delight' (archive footage)
Ava Gardner ... Herself - at Banquet / Clip from 1951 version of 'Show Boat' (archive footage)
Judy Garland ... Clips from 'Wizard of Oz' & 'Summer Stock' etc. (archive footage)
Cary Grant ... Clip from 'Suzy' (archive footage)
Kathryn Grayson ... Clips from 1951 version of 'Show Boat' and 'Toast of New Orleans' (archive footage)
Virginia Grey ... Clip from 'Idiot's Delight' (archive footage)
Jack Haley ... Clip from 'The Wizard of Oz' (archive footage)
Jean Harlow ... Clips from 'Reckless' & 'Suzy' (archive footage)
Bernadene Hayes ... Clip from 'Idiot's Delight' (archive footage)
Lena Horne ... Herself - at Banquet / Clip from 'Thousands Cheer' (archive footage)
Lottice Howell ... Clip from 'Free and Easy' (archive footage)
Van Johnson ... (archive footage)
Allan Jones ... (archive footage)
Louis Jourdan ... Clip from "Gigi" (archive footage)
Howard Keel ... Gaylord Ravenal / Hazard Endicott (archive footage)
Charles King ... Clip from 'Broadway Melody' (archive footage)
Lorraine Krueger... Clip from 'Idiot's Delight' (archive footage)
Bert Lahr ... Clip from 'The Wizard of Oz' (archive footage)
Mario Lanza ... Clip from 'Toast of New Orleans' (archive footage)
Jeanette MacDonald Clip from 'Rose Marie' (archive footage)
Joan Marsh ... Clip from 'Idiot's Delight' (archive footage)
Tony Martin ... Clip from 'Hit the Deck' (archive footage)
Douglas McPhail ... Clip from 'Babes in Arms' (archive footage)
Ann Miller ... Clip from 'Small Town Girl' (archive footage)
Robert Montgomery.. Clip from 'Free and Easy' (archive footage)
Natalie Moorhead... Clip from 'Dance, Fools, Dance' (archive footage)

Runtime: 135 min
Sound Mix: 4-Track Stereo (35 mm magnetic prints)| Mono (35 mm optical prints)| 70 mm 6-Track
Color: Color (Metrocolor)| Black and White
Aspect Ratio: 1.85 : 1

Capturas:

ImagenImagenImagenImagenImagen

ImagenImagenImagenImagenImagen

Datos:

Código: Seleccionar todo

General
Unique ID                                : 216490862073153646803026740036691633248 (0xA2DE9F96D56C42AA9BD5338CABB52460)
Complete name                            : That's Entertainment! (1974) DVDRip.VOSE.mkv
Format                                   : Matroska
Format version                           : Version 4 / Version 2
File size                                : 2.64 GiB
Duration                                 : 2 h 14 min
Overall bit rate                         : 2 806 kb/s
Encoded date                             : UTC 2016-10-07 17:06:37
Writing application                      : mkvmerge v7.9.0 ('Birds') 32bit
Writing library                          : libebml v1.3.1 + libmatroska v1.4.2

Video
ID                                       : 1
Format                                   : AVC
Format/Info                              : Advanced Video Codec
Format profile                           : High@L4.1
Format settings, CABAC                   : Yes
Format settings, ReFrames                : 4 frames
Codec ID                                 : V_MPEG4/ISO/AVC
Duration                                 : 2 h 14 min
Bit rate                                 : 2 353 kb/s
Width                                    : 720 pixels
Height                                   : 384 pixels
Display aspect ratio                     : 1.85:1
Frame rate mode                          : Constant
Frame rate                               : 23.976 (24000/1001) FPS
Color space                              : YUV
Chroma subsampling                       : 4:2:0
Bit depth                                : 8 bits
Scan type                                : Progressive
Bits/(Pixel*Frame)                       : 0.355
Stream size                              : 2.22 GiB (84%)
Writing library                          : x264 core 148 r2721 72d53ab
Encoding settings                        : cabac=1 / ref=4 / deblock=1:-1:-1 / analyse=0x3:0x133 / me=umh / subme=7 / psy=1 / psy_rd=1.00:0.15 / mixed_ref=1 / me_range=16 / chroma_me=1 / trellis=1 / 8x8dct=1 / cqm=0 / deadzone=21,11 / fast_pskip=1 / chroma_qp_offset=-3 / threads=3 / lookahead_threads=1 / sliced_threads=0 / nr=0 / decimate=1 / interlaced=0 / bluray_compat=0 / constrained_intra=0 / bframes=3 / b_pyramid=2 / b_adapt=2 / b_bias=0 / direct=3 / weightb=1 / open_gop=0 / weightp=2 / keyint=240 / keyint_min=23 / scenecut=40 / intra_refresh=0 / rc_lookahead=60 / rc=2pass / mbtree=1 / bitrate=2353 / ratetol=1.0 / qcomp=0.60 / qpmin=0 / qpmax=69 / qpstep=4 / cplxblur=20.0 / qblur=0.5 / vbv_maxrate=50000 / vbv_bufsize=62500 / nal_hrd=none / filler=0 / ip_ratio=1.40 / aq=1:1.00
Language                                 : English
Default                                  : Yes
Forced                                   : No

Audio
ID                                       : 2
Format                                   : AC-3
Format/Info                              : Audio Coding 3
Mode extension                           : CM (complete main)
Format settings, Endianness              : Big
Codec ID                                 : A_AC3
Duration                                 : 2 h 14 min
Bit rate mode                            : Constant
Bit rate                                 : 448 kb/s
Channel(s)                               : 6 channels
Channel positions                        : Front: L C R, Side: L R, LFE
Sampling rate                            : 48.0 kHz
Frame rate                               : 31.250 FPS (1536 spf)
Compression mode                         : Lossy
Delay relative to video                  : 7 ms
Stream size                              : 432 MiB (16%)
Language                                 : English
Default                                  : Yes
Forced                                   : No

Text #1
ID                                       : 3
Format                                   : VobSub
Muxing mode                              : zlib
Codec ID                                 : S_VOBSUB
Codec ID/Info                            : Picture based subtitle format used on DVDs
Duration                                 : 2 h 11 min
Bit rate                                 : 1 829 b/s
Count of elements                        : 1375
Stream size                              : 1.71 MiB (0%)
Language                                 : English
Default                                  : No
Forced                                   : No

Text #2
ID                                       : 4
Format                                   : VobSub
Muxing mode                              : zlib
Codec ID                                 : S_VOBSUB
Codec ID/Info                            : Picture based subtitle format used on DVDs
Duration                                 : 2 h 11 min
Bit rate                                 : 1 894 b/s
Count of elements                        : 1401
Stream size                              : 1.78 MiB (0%)
Language                                 : Spanish
Default                                  : No
Forced                                   : No
Subtítulos en inglés y español incluídos en el contenedor MKV, ambos proceden del DVD.

Elink:
eD2K link That's Entertainment! (1974) DVDRip.VOSE.mkv [2.64 Gb] 
“Si no lees los periódicos estás desinformado”.
Y si los lees estás mal informado”.
Denzel Washington.

jail
 
Mensajes: 4850
Registrado: 18 Oct 2012, 15:34
Agradecido : 5355 veces
Agradecimiento recibido: 1217 veces

Re: That's Entertainment! (Jack Haley Jr. 1974) DVDRip VOSE

Mensaje por jail » 07 Oct 2016, 21:51

Agradecido, locotus.

carliquielo
 
Mensajes: 25
Registrado: 08 Dic 2012, 12:14
Agradecimiento recibido: 11 veces

Re: That's Entertainment! (Jack Haley Jr. 1974) DVDRip VOSE

Mensaje por carliquielo » 07 Oct 2016, 22:33

gracias locotus por seguir homenajeando a los musicales. :amo:

Avatar de Usuario
cagney
 
Mensajes: 421
Registrado: 18 Oct 2012, 00:02
Agradecido : 218 veces
Agradecimiento recibido: 447 veces

Re: That's Entertainment! (Jack Haley Jr. 1974) DVDRip VOSE

Mensaje por cagney » 07 Oct 2016, 23:11

Uno de los films que cimentaron mi cinefilia cuando la pasaban en alguna ya lejana nochevieja de mi infancia...

Gracias por el aporte...

Avatar de Usuario
epfluger
 
Mensajes: 78
Registrado: 27 Abr 2016, 12:09
Agradecido : 1 vez
Agradecimiento recibido: 31 veces

Re: That's Entertainment! (Jack Haley Jr. 1974) DVDRip VOSE

Mensaje por epfluger » 08 Oct 2016, 00:58

Me pasa exactamente lo mismo que a Cagney. Esta pelicula, que solían programar en TVE durante las fiestas, fue mi iniciación al cine musical.
Hacia mucho tiempo que no la veía.
Muchísimas gracias.

ciberyago
 
Mensajes: 1951
Registrado: 20 Oct 2012, 07:26
Agradecimiento recibido: 194 veces

Re: That's Entertainment! (Jack Haley Jr. 1974) DVDRip VOSE

Mensaje por ciberyago » 08 Oct 2016, 05:17

Muchas gracias, Locotus

Avatar de Usuario
Gorkus
 
Mensajes: 470
Registrado: 27 Oct 2012, 20:59
Agradecido : 14 veces
Agradecimiento recibido: 163 veces

Re: That's Entertainment! (Jack Haley Jr. 1974) DVDRip VOSE

Mensaje por Gorkus » 08 Oct 2016, 09:15

Gracias Mr. Locotus :hi:

Avatar de Usuario
paljoe
 
Mensajes: 719
Registrado: 16 Dic 2012, 00:00
Agradecido : 1 vez
Agradecimiento recibido: 154 veces

Re: That's Entertainment! (Jack Haley Jr. 1974) DVDRip VOSE

Mensaje por paljoe » 08 Oct 2016, 12:40

muchas gracias, locotus; tengo las tres, pero sin subtítulos; ¡que siga la racha!

Avatar de Usuario
fifole
 
Mensajes: 3452
Registrado: 17 Oct 2012, 20:47
Agradecido : 5406 veces
Agradecimiento recibido: 8260 veces

Re: That's Entertainment! (Jack Haley Jr. 1974) DVDRip VOSE

Mensaje por fifole » 08 Oct 2016, 13:32

Un pequeño recuerdo personal. Me sabía todos los fragmentos musicales de memoria antes de ver la película, ya que mi padre solía poner el cassette todas las tardes a la hora de la siesta durante varios años después de estrenada la peli. Desde luego, los caminos de la cinefilia son inescrutables...

Muchas gracias por este revival de ritmo y melodía, locotus. :aplauso:

Avatar de Usuario
yojimbo
 
Mensajes: 7442
Registrado: 18 Oct 2012, 14:25
Agradecido : 6881 veces
Agradecimiento recibido: 1419 veces

Re: That's Entertainment! (Jack Haley Jr. 1974) DVDRip VOSE

Mensaje por yojimbo » 27 Nov 2016, 18:12

Muchas gracias, locotus.

Responder

Volver a “Largos Modernos”