Il giorno più corto (Sergio Corbucci, 1963) DVDRip VOSE

Puntuación
5/10
1 voto

El día más corto

Moderador: Monsieur Lange

Responder
vozidar
 
Mensajes: 1283
Registrado: 17 Oct 2012 05:58
Agradecido : 335 veces
Agradecimiento recibido: 4178 veces

Italia Il giorno più corto (Sergio Corbucci, 1963) DVDRip VOSE

Mensaje por vozidar » 24 May 2016 20:51

Director
Sergio Corbucci

Guión
Giorgio Arlorio, Bruno Corbucci, Giovanni Grimaldi (Historia: Sandro Continenza)

Música
Piero Piccioni

Fotografía
Enzo Barboni (B&W)

Reparto
Ciccio Ingrassia, Franco Franchi, Virna Lisi, Gino Cervi, Walter Chiari

Productora
Cinecompar / Titanus
Género
Comedia | Parodia. I Guerra Mundial
Sinopsis
Parodia italiana de la superproducción norteamericana sobre el desembarco de Normandía ("El día más largo", 1962) pero adaptada a la I Guerra Mundial. Los protagonistas son dos tipos muy torpes que se convierten en héroes sin buscarlo.

Críticas
Al igual que la citada El día más largo, en esta farsa también hay lugar para que el público se divierta encontrando a un montón de rostros conocidos del cine europeo. (decine21.com)
-----------------------------------

Código: Seleccionar todo

General
Complete name               : Il Giorno Più Corto (S. Corbucci, 1962).avi
Format                      : AVI
Format/Info                 : Audio Video Interleave
File size                   : 1.46 GiB
Duration                    : 1h 27mn
Overall bit rate            : 2 397 Kbps
Writing application         : VirtualDubMod 1.5.10.2 (build 2540/release)
Writing library             : VirtualDubMod build 2540/release

Video
ID                          : 0
Format                      : MPEG-4 Visual
Format profile              : Advanced Simple@L5
Format settings, BVOP       : 2
Format settings, QPel       : No
Format settings, GMC        : No warppoints
Format settings, Matrix     : Default (H.263)
Codec ID                    : XVID
Codec ID/Hint               : XviD
Duration                    : 1h 27mn
Bit rate                    : 2 196 Kbps
Width                       : 656 pixels
Height                      : 352 pixels
Display aspect ratio        : 1.85:1
Frame rate                  : 25.000 fps
Color space                 : YUV
Chroma subsampling          : 4:2:0
Bit depth                   : 8 bits
Scan type                   : Progressive
Compression mode            : Lossy
Bits/(Pixel*Frame)          : 0.380
Stream size                 : 1.34 GiB (92%)
Writing library             : XviD 64

Audio
ID                          : 1
Format                      : AC-3
Format/Info                 : Audio Coding 3
Format profile              : Dolby Digital
Mode extension              : CM (complete main)
Format settings, Endianness : Big
Codec ID                    : 2000
Duration                    : 1h 27mn
Bit rate mode               : Constant
Bit rate                    : 192 Kbps
Channel(s)                  : 2 channels
Channel positions           : Front: L R
Sampling rate               : 48.0 KHz
Frame rate                  : 31.250 fps (1536 spf)
Compression mode            : Lossy
Stream size                 : 120 MiB (8%)
Alignment                   : Split accross interleaves
Interleave, duration        : 40 ms (1.00 video frame)
Interleave, preload duratio : 500 ms
Imagen
Imagen
Imagen
Imagen

eD2K link Il Giorno Più Corto (1962 - Eduardo E Peppino De Filippo, Totò, Franco Franchi,... Gino Cervi).avi [1.46 Gb] 

Subtítulos en español:
http://www.subdivx.com/X6XNDcxNjQ3

:hi:
Última edición por vozidar el 02 Jul 2016 15:39, editado 5 veces en total.

Avatar de Usuario
victor1949
 
Mensajes: 1162
Registrado: 17 Oct 2012 08:13
Ubicación: Palamós / Baix Empodá
Agradecido : 106 veces
Agradecimiento recibido: 174 veces

Re: Il giorno più corto (Sergio Corbucci, 1963) DVDRip VO(SE)

Mensaje por victor1949 » 24 May 2016 21:16

Muchísimas grácias, vozidar. (en espera de los subs.)

montagut
 
Mensajes: 374
Registrado: 04 Mar 2013 23:16
Agradecido : 115 veces
Agradecimiento recibido: 1028 veces

Re: Il giorno più corto (Sergio Corbucci, 1963) DVDRip VO(SE)

Mensaje por montagut » 24 May 2016 23:12

Muchas gracias, por si te sirve de ayuda he sacado los subtitulos de la pagina de rtve, lo malo es que la pelicula dura 14 minutos menos y que es una version para sordos, por lo que si hay cambios en el doblaje tambien estaran en los subtitulos:
https://mega.nz/#!FwIz1RxJ!P7UnG08GNGzo ... cc92mLDf7U

jail
 
Mensajes: 6276
Registrado: 18 Oct 2012 15:34
Agradecido : 6875 veces
Agradecimiento recibido: 1951 veces

Re: Il giorno più corto (Sergio Corbucci, 1963) DVDRip VO(SE)

Mensaje por jail » 24 May 2016 23:15

Gracias, vozidar.

vozidar
 
Mensajes: 1283
Registrado: 17 Oct 2012 05:58
Agradecido : 335 veces
Agradecimiento recibido: 4178 veces

Re: Il giorno più corto (Sergio Corbucci, 1963) DVDRip VO(SE)

Mensaje por vozidar » 24 May 2016 23:19

montagut escribió:Muchas gracias, por si te sirve de ayuda he sacado los subtitulos de la pagina de rtve, lo malo es que la pelicula dura 14 minutos menos y que es una version para sordos, por lo que si hay cambios en el doblaje tambien estaran en los subtitulos:
https://mega.nz/#!FwIz1RxJ!P7UnG08GNGzo ... cc92mLDf7U
Gracias. Ya los había sacado yo y por eso los prometí. Hay que sincronizar y arreglar línea a línea. Y ya veremos qué pasa con esas diferencias de metraje...

Malamine
 
Mensajes: 45
Registrado: 23 May 2016 17:41
Ubicación: Dakar/Madrid
Agradecido : 2 veces
Agradecimiento recibido: 13 veces

Re: Il giorno più corto (Sergio Corbucci, 1963) DVDRip VO(SE)

Mensaje por Malamine » 24 May 2016 23:23

¿Cómo bajar este tesoro de TVE?
http://www.rtve.es/alacarta/videos/cine ... o/3615595/
Mi conexión no me permite descargas P2P.
Muy agradecido

Mame Malamine Gaye

montagut
 
Mensajes: 374
Registrado: 04 Mar 2013 23:16
Agradecido : 115 veces
Agradecimiento recibido: 1028 veces

Re: Il giorno più corto (Sergio Corbucci, 1963) DVDRip VO(SE)

Mensaje por montagut » 24 May 2016 23:41

Malamine escribió:¿Cómo bajar este tesoro de TVE?
http://www.rtve.es/alacarta/videos/cine ... o/3615595/
Mi conexión no me permite descargas P2P.
Muy agradecido

Mame Malamine Gaye
desde esta pagina se puede bajar tanto el video como los subtitulos:
http://www.descargavideos.tv/

Malamine
 
Mensajes: 45
Registrado: 23 May 2016 17:41
Ubicación: Dakar/Madrid
Agradecido : 2 veces
Agradecimiento recibido: 13 veces

Re: Il giorno più corto (Sergio Corbucci, 1963) DVDRip VO(SE)

Mensaje por Malamine » 24 May 2016 23:46

¡Muchas gracias, montagut!
¡Muy amable!

Avatar de Usuario
eddelon
 
Mensajes: 2282
Registrado: 28 Oct 2012 01:05
Ubicación: Buenos Aires,Argentina
Agradecido : 2235 veces
Agradecimiento recibido: 385 veces

Re: Il giorno più corto (Sergio Corbucci, 1963) DVDRip VO(SE)

Mensaje por eddelon » 25 May 2016 00:37

GRAZIE MILLE!!! Vozidar, me la llevo que no la ví, además de mi querido TOGNAZZI ... pavada de elenco. :yahoo:
Quedo a la espera de los futuros subtítulos. :)

:hi:

Avatar de Usuario
boettcher
 
Mensajes: 1643
Registrado: 17 Oct 2012 12:01
Agradecido : 993 veces
Agradecimiento recibido: 295 veces

Re: Il giorno più corto (Sergio Corbucci, 1963) DVDRip VO(SE)

Mensaje por boettcher » 25 May 2016 16:27

Muchas gracias, vozidar :)

Responder

Volver a “Largos Modernos”