Sleuth (Joseph L. Mankiewicz, 1972) Ver índice

Puntuación
7,5/10
4 votos

La Huella

Moderador: Monsieur Lange

Responder
Avatar de Usuario
professor keller
 
Mensajes: 4605
Registrado: 03 Oct 2012, 10:07
Agradecido : 240 veces
Agradecimiento recibido: 1501 veces

Reino Unido Sleuth (Joseph L. Mankiewicz, 1972) Ver índice

Mensaje por professor keller » 16 Oct 2012, 12:38

Índice de Ripeos: -

*Nota: Tenga en cuenta la calidad de cada ripeo para hacer la mejor elección. Haga click aquí para más información.
Dardo en DXC:
Sleuth / La Huella (Joseph L. Mankiewicz, 1972)

Imagen
http://www.imdb.com/title/tt0069281/

Director
Joseph L. Mankiewicz

Reparto
Laurence Olivier, Michael Caine

Sinopsis: Andrew Wyke (Laurence Olivier) es un prestigioso escritor de novelas de intriga. Además, su pasión por los juegos de ingenio y las adivinanzas lo ha llevado a convertir su gran mansión en una especie de museo, donde se exponen los juguetes y mecanismos más extravagantes. Una tarde, invita a su casa a Milo Tindle (Michael Caine), amante de su mujer y propietario de una cadena de salones de belleza, para proponerle un ingenioso plan del que ambos podrían salir beneficiados.
Comentario:Olivier es un famoso escritor de novelas de misterio con pasión por los juegos y las adivinanzas. Caine es el propietario de una cadena de salones de belleza con pasión -correspondida- por la mujer de Olivier. Ambos mantienen un encuentro en la mansión del primero, el cual ofrece a su rival un estudiado plan para resolver sus diferencias beneficiándose mutuamente. Así, mano a mano, merced al talento innato de dos "monstruos" de la interpretación, asistimos a uno de los duelos actorales más magistrales de la historia del cine. Basada en la obra de Broadway ganadora del premio Tony, obtuvo 4 nominaciones a los Oscar; mejor interpretación a ambos actores, mejor director y mejor banda sonora. Una intriga teatral que atrapa sin remedio. (Pablo Kurt: FILMAFFINITY)
Imagen

Ripeo Anamórfico de Dardo en DXC
Resolución real: 716x552 pixels / Resolución en pantalla: 1017x552

Código: Seleccionar todo

General
Complete name                    : Sleuth (La Huella, 1972) DVDRip Dual SE [DivXClásico].mkv
Format                           : Matroska
File size                        : 2.54 GiB
Duration                         : 2h 12mn
Overall bit rate                 : 2 738 Kbps
Encoded date                     : UTC 2011-12-26 10:34:13
Writing application              : mkvmerge v4.0.0 ('The Stars were mine') built on Jun  5 2010 17:44:09
Writing library                  : libebml v1.0.0 + libmatroska v1.0.0

Video
ID                               : 1
Format                           : AVC
Format/Info                      : Advanced Video Codec
Format profile                   : High@L4.1
Format settings, CABAC           : Yes
Format settings, ReFrames        : 16 frames
Muxing mode                      : Container profile=Unknown@4.1
Codec ID                         : V_MPEG4/ISO/AVC
Duration                         : 2h 12mn
Bit rate                         : 2 299 Kbps
Width                            : 716 pixels
Height                           : 552 pixels
Display aspect ratio             : 16:9
Original display aspect ratio    : 16:9
Frame rate                       : 25.000 fps
Color space                      : YUV
Chroma subsampling               : 4:2:0
Bit depth                        : 8 bits
Scan type                        : Progressive
Bits/(Pixel*Frame)               : 0.233
Stream size                      : 2.13 GiB (84%)
Writing library                  : x264 core 120 r2120 0c7dab9
Encoding settings                : cabac=1 / ref=16 / deblock=1:-1:-1 / analyse=0x3:0x133 / me=umh / subme=10 / psy=1 / psy_rd=1.00:0.15 / mixed_ref=1 / me_range=24 / chroma_me=1 / trellis=2 / 8x8dct=1 / cqm=0 / deadzone=21,11 / fast_pskip=1 / chroma_qp_offset=-3 / threads=3 / sliced_threads=0 / nr=0 / decimate=1 / interlaced=0 / bluray_compat=0 / constrained_intra=0 / bframes=8 / b_pyramid=2 / b_adapt=2 / b_bias=0 / direct=3 / weightb=1 / open_gop=0 / weightp=2 / keyint=250 / keyint_min=25 / scenecut=40 / intra_refresh=0 / rc_lookahead=60 / rc=crf / mbtree=1 / crf=19.3 / qcomp=0.60 / qpmin=0 / qpmax=69 / qpstep=4 / ip_ratio=1.40 / aq=1:1.00

Audio #1
ID                               : 2
Format                           : AC-3
Format/Info                      : Audio Coding 3
Mode extension                   : CM (complete main)
Codec ID                         : A_AC3
Duration                         : 2h 12mn
Bit rate mode                    : Constant
Bit rate                         : 192 Kbps
Channel(s)                       : 2 channels
Channel positions                : Front: L R
Sampling rate                    : 48.0 KHz
Bit depth                        : 16 bits
Stream size                      : 182 MiB (7%)

Audio #2
ID                               : 3
Format                           : AC-3
Format/Info                      : Audio Coding 3
Mode extension                   : CM (complete main)
Codec ID                         : A_AC3
Duration                         : 2h 12mn
Bit rate mode                    : Constant
Bit rate                         : 192 Kbps
Channel(s)                       : 2 channels
Channel positions                : Front: L R
Sampling rate                    : 48.0 KHz
Bit depth                        : 16 bits
Stream size                      : 182 MiB (7%)

Text
ID                               : 4
Format                           : UTF-8
Codec ID                         : S_TEXT/UTF8
Codec ID/Info                    : UTF-8 Plain Text
Capturas

Imagen
Imagen
Imagen
Imagen
Imagen

eMule
eD2K link Sleuth (La Huella, 1972) DVDRip Dual SE [DivXClásico].mkv [2.54 Gb] 

Subtítulos en Español
Dentro del MKV. Son los que había posteado Shoocat (muchas gracias) sincronizados y con algunas correcciones.
El Audio Doblado, las gracias son para Fronky que es el que me lo ha proporcionado.
Vídeo de la edición anamórfica de la Paramount, que gracias a un comentario de Kellerreactivó este ripeo.
La pluma en el ojo
Proyecto colectivo de ideas cinéfilas

Avatar de Usuario
Monsieur Lange
 
Mensajes: 4417
Registrado: 13 Sep 2012, 19:39
Ubicación: Cruzando las dunas
Agradecido : 1176 veces
Agradecimiento recibido: 1404 veces

Re: Sleuth (Joseph L. Mankiewicz, 1972) DVDRip Dual SE

Mensaje por Monsieur Lange » 16 Oct 2012, 16:26

Gracias profesor Keller por la propuesta y a LuisB por sus siempre brillantes ensayos. Un placer para la vista y el intelecto... ¡Coño, he dicho un palabro raro! :clown:
"Adaptar no es recalentar la comida"
Alain Resnais

Avatar de Usuario
Dardo
 
Mensajes: 746
Registrado: 16 Oct 2012, 16:16
Ubicación: Entre encinas y dolomías
Agradecido : 383 veces
Agradecimiento recibido: 2220 veces

Re: Sleuth (Joseph L. Mankiewicz, 1972) DVDRip Dual SE

Mensaje por Dardo » 16 Oct 2012, 16:35

:genial:

Si hay problemas de fuentes pues se me dice y ya está.

Keller creo que te voy a ahorrar el trabajo a partir de ahora ;)
"Si queremos que todo siga como está, es necesario que todo cambie".
Burt Lancaster (El Gatopardo)

Avatar de Usuario
Lari
 
Mensajes: 891
Registrado: 03 Oct 2012, 18:52
Ubicación: De viaje, siempre de viaje...
Agradecido : 24 veces
Agradecimiento recibido: 9 veces

Re: Sleuth (Joseph L. Mankiewicz, 1972) DVDRip Dual SE

Mensaje por Lari » 16 Oct 2012, 16:45

Gracias a los tres Dardo, Keller y Luis :up:

Avatar de Usuario
professor keller
 
Mensajes: 4605
Registrado: 03 Oct 2012, 10:07
Agradecido : 240 veces
Agradecimiento recibido: 1501 veces

Re: Sleuth (Joseph L. Mankiewicz, 1972) DVDRip Dual SE

Mensaje por professor keller » 16 Oct 2012, 16:49

Dardo escribió:Keller creo que te voy a ahorrar el trabajo a partir de ahora ;)
:colega:
La pluma en el ojo
Proyecto colectivo de ideas cinéfilas

Avatar de Usuario
gatatitania
 
Mensajes: 4556
Registrado: 16 Oct 2012, 18:27
Ubicación: Gatatitania es un gato hambriento, superviviente del planeta gatatitania...
Agradecido : 2395 veces
Agradecimiento recibido: 1343 veces

Re: Sleuth (Joseph L. Mankiewicz, 1972) DVDRip Dual SE

Mensaje por gatatitania » 20 Oct 2012, 12:25

Bueno. Pues allá va la banda sonora de esta obra maestra, a cargo del británico John Addison. Música con cierto aire circense, que acentúa el tono de gran gignol que tiene la película de Mankiewicz

eD2K link BSO Sleuth - John.Addison.rar [50.58 Mb] 

Avatar de Usuario
JGUTII
 
Mensajes: 1627
Registrado: 19 Oct 2012, 05:57
Ubicación: Ciudad del Betis
Agradecido : 5004 veces
Agradecimiento recibido: 117 veces

Re: Sleuth (Joseph L. Mankiewicz, 1972) DVDRip Dual SE

Mensaje por JGUTII » 22 Dic 2012, 08:43

Muchas gracias, profe y Dardo. Completa y compartiendo. :aplauso: :aplauso:
Imagen

Avatar de Usuario
jcarlos7840
 
Mensajes: 181
Registrado: 25 Nov 2012, 16:14
Agradecido : 31 veces
Agradecimiento recibido: 9 veces

Re: Sleuth (Joseph L. Mankiewicz, 1972) DVDRip Dual SE

Mensaje por jcarlos7840 » 02 Mar 2015, 17:30

Muchas gracias amigo
Imagen

Avatar de Usuario
Initiand
 
Mensajes: 536
Registrado: 21 Oct 2012, 19:59
Agradecido : 269 veces
Agradecimiento recibido: 1197 veces

Reino Unido Sleuth (Joseph L. Mankiewicz, 1972) DVDRip 576p Dual

Mensaje por Initiand » 30 Abr 2015, 14:08

Sleuth (1972) M. Caine DVDRip 576p x264 ger-eng-spa.mkv
Imagen
La huella
Título original Sleuth
Año 1972
Duración 138 min.
País Reino Unido
Director Joseph L. Mankiewicz
Guión Anthony Shaffer (Teatro: Anthony Shaffer).
Música John Addison
Fotografía Oswald Morris
Reparto Laurence Olivier, Michael Caine, Alec Cawthorne, John Matthews, Eve Channing, Teddy Martin
Productora 20th Century Fox / Palomar Pictures
Género Intriga | Drama psicológico. Comedia negra
Sinopsis Andrew Wyke (Laurence Olivier) es un prestigioso escritor de novelas de intriga. Además, su pasión por los juegos de ingenio y las adivinanzas lo ha llevado a convertir su gran mansión en una especie de museo, donde se exponen los juguetes y mecanismos más extravagantes. Una tarde, invita a su casa a Milo Tindle (Michael Caine), amante de su mujer y propietario de una cadena de salones de belleza, para proponerle un ingenioso plan del que ambos podrían salir beneficiados. (FILMAFFINITY)
Premios
1972: Oscar: 4 nominaciones, director, actores (L. Olivier y M. Caine) y BSO
1972: Globos de Oro: 3 nominaciones, incluyendo mejor película - Drama
1972: Círculo de críticos de Nueva York: Mejor actor (L. Olivier)
1972: Premios David di Donatello: Mejor actor extranjero (L. Olivier)
IMBb
http://www.filmaffinity.com/es/film669546.html
Olivier es un famoso escritor de novelas de misterio con pasión por los juegos y las adivinanzas. Caine es el propietario de una cadena de salones de belleza con pasión -correspondida- por la mujer de Olivier. Ambos mantienen un encuentro en la mansión del primero, el cual ofrece a su rival un estudiado plan para resolver sus diferencias beneficiándose mutuamente. Así, mano a mano, merced al talento innato de dos "monstruos" de la interpretación, asistimos a uno de los duelos actorales más magistrales de la historia del cine. Basada en la obra de Broadway ganadora del premio Tony, obtuvo 4 nominaciones a los Oscar; mejor interpretación a ambos actores, mejor director y mejor banda sonora. Una intriga teatral que atrapa sin remedio. Pablo Kurt: FILMAFFINITY

"Extraña velada para dos pesos pesados de la interpretación" Javier Ocaña: Cinemanía
Spoiler:
Es ist schwer, etwas über Joseph L. Mankiewicz’ (Alles über Eva) letzten Film „Sleuth - Mord mit kleinen Fehlern“ zu sagen, ohne zu viel über den Inhalt zu verraten. Denn bei diesem Film gilt ein Satz besonders: Je mehr man weiß, desto geringer das Filmvergnügen. Deswegen nur so viel zur Story: Der egozentrische Krimiautor Andrew Wyke (Laurence Olivier) lädt Milo Tindle (Michael Caine) auf sein Anwesen ein, wo er ihm nicht nur seine zahlreichen mechanischen Spielereien vorführen will, sondern eine Aussprache anstrebt. Tindle hat ein Verhältnis mit Wykes Frau Marguerite. Zu Tindles und des Zuschauers Überraschung sieht Wyke darin aber scheinbar kein großes Problem, denn er gibt seine Frau frei, macht diesem aber klar, dass der Unterhalt von Marguerite recht teuer sei und Tindle doch kein Geld habe. So bekommt Tindle von ihm noch ein Angebot, das er nicht ausschlagen kann: eine Menge Bargeld für einen kleinen Versicherungsbetrug. Tindle soll aus Wykes Haus Schmuck stehlen, passend zu Wykes besonderem Humor verkleidet als Clown mit übergroßen Schuhen. Tindle lässt sich darauf ein, doch wie der deutsche Titel schon verrät, hat Wyke bei der Sache ganz andere Hintergedanken...
„Sleuth“ ist ein Krimi-Klassiker und doch leider etwas in Vergessenheit geraten. Zu Unrecht. Denn was Joseph L. Mankiewicz hier, basierend auf einem Theaterstück von Anthony Shaffer (der selbst das Drehbuch schrieb), über eine Laufzeit von 138 Minuten präsentiert, ist hervorragende und amüsante Krimiunterhaltung, bei welcher der Zuschauer so gut wie nie auf der richtigen Spur ist. Denn nichts ist so wie es scheint. Dabei merkt man dem Film die Herkunft vom Theater durchaus an. Er ließe sich recht einfach in zwei Akte teilen, denn es gibt nach etwas mehr als einer Stunde einen kleinen Schnitt und ein neuer Aspekt beginnt, fast als wäre der Vorhang gefallen, eine kurze Pause hätte stattgefunden und nun geht es neu weiter mit dem wendungsreichen Plot, der jetzt eine Überraschung nach der anderen für den Zuschauer bereit hält (am Anfang und am Ende des Films öffnet sich bzw. fällt sogar ein Vorhang).
Dem Regisseur und dem Drehbuchautor ist dabei ein ungewöhnlicher Spagat gelungen. Zum einen ist ihr Werk selbst eine gut ausgeklügelte und hochspannende Krimigeschichte, zum anderen ist der Film aber auch ein gutes Stück weit eine Persiflage auf diese Art von Geschichten. Protagonist Andrew Wyke ist der typische englische Krimiautor und steht in bester Tradition zu Agatha Christie. Er hat eine Buchfigur geschaffen, die der tölpelhaften Polizei immer einen Schritt voraus ist, und so die Verbrechen aufklärt. Ganz typisch für den englischen Krimi. Doch Wyke hat das so sehr verinnerlicht, dass er es auf die Realität überträgt und glaubt, nun seinerseits der Polizei ein Schnippchen schlagen zu können. Der Film spielt dabei richtiggehend mit den üblichen Genrezutaten und stellt sie immer wieder auf den Kopf.
Neben der hervorragenden Geschichte, die sich nur in den ersten Minuten und am Ende bisweilen etwas (aber leicht verschmerzbar) zieht, besticht der Film vor allem durch die beiden Hauptdarsteller. Laurence Olivier (Rebecca, Der Marathon Mann, Spartacus) als arroganter Autor, der über allem zu stehen scheint, ist eine Klasse für sich. Wie er in der ersten Szene seinen Gast in einem Irrgarten empfängt, symbolisiert schon diese Erhabenheit, die er ausstrahlt. Keiner scheint ihm gewachsen zu sein, doch dann findet er einen ebenbürtigen Gegner. Genauso wie der Schauspieler Laurence Olivier in Michael Caine (Gottes Werk und Teufels Beitrag, Get Carter, Der stille Amerikaner) einen ebenbürtigen Widerpart findet, so dass beide auch für den Oscar als bester Hauptdarsteller nominiert wurden (sich aber dem in diesem Jahr übermächtigen „Paten“ Marlon Brando geschlagen geben mussten). Wie präsent die beiden auf der Leinwand sind, zeigt sich schon darin, dass über eine Stunde des Films wirklich nur Michael Caine und Laurence Olivier zu sehen sind.
http://www.rogerebert.com/reviews/sleuth-1972 ****
Spoiler:
2001 Filmlexikon escribió:Ein Kriminalschriftsteller spielt mit dem Geliebten seiner Frau ein Mörderspiel nach dem Schema seiner Romane, bis aus dem Spiel Ernst wird. Verfilmung eines Zwei-Personen-Stücks, die mit intelligenten Dialogen, elegant-pointierter Darstellung und einer ungemein souveränen Regie brilliert; zugleich eine Parodie auf den englischen Kriminalroman und eine tiefer gehende Auseinandersetzung mit dem Grenzbereich zwischen intellektuellem Spiel und mörderischem Ernst. Gescheite und genüßliche, nur zuletzt von einigen Längen gedehnte Unterhaltung.
SLEUTH aus dem Jahr 1972 war die letzte Regiearbeit von Joseph L. Mankievicz, der 1949 für sein Romantik-Drama A LETTER TO THREE WIVES den Oscar für die Beste Regie bekam. Michael Caine und Laurence Olivier, beide mittlerweile von der Queen zum Sir ernannt, ergatterten die Hauptrollen in dem Zweikampf SLEUTH, einem freiwilligen Duell mit ungewissem Ausgang. Das wendungsreiche Drehbuch stammt von Anthony Shaffar, der hier sein eigenes Theaterstück adaptierte. Sogleich in der Eröffnungsszene mit pompös detektivischer Eingangsmusik von John Addison sind kleine Bühnen zu sehen, welche weiters auf die zweischneidigen Marionetten-Spielchen von Caine und Olivier verweisen. Zwischen all seinen spitzfindigen Dialogen erzeugt Shaffar nicht nur einen spannenden Kriminalfilm, sondern zugleich eine Parodie dieses Genres, dass mit SLEUTH aber auch eine Ehrung erfährt. Olivier und Caine wurden nicht umsonst beide für einen Oscar für ihre Darstellung in SLEUTH nominiert, mussten sich jedoch dem „Paten“ Marlon Brando geschlagen geben.
SLEUTH ist ein Tango auf höchstem Niveau – ein Paartanz von Michale Caine und Laurence Olivier in ihren vielleicht besten Rollen. Abwechselnd als Fädenzieher und als Spielball versuchen sie die Oberhand zu gewinnen und lassen über ihr Talent diese beiden Männer zu verkörpern, ihnen Seele und Boshaftigkeit zu verleihen, staunen. SLEUTH ist ein Klassiker des Krimikinos und jedem Freund der Theaterbühne, des raffinierten Films und spitzbübischen Charmes ans Herz zu legen. DVD-Forum

Código: Seleccionar todo

Complete name                    :Sleuth-Mord  mit kleinen Fehlern (1972) M. Caine DVDRip 576p x264 ger-eng-spa.mkv
Format                           : Matroska
File size                        : 2.85 GiB
Duration                         : 2h 12mn
Overall bit rate                 : 3 074 Kbps
Encoded date                     : UTC 2015-04-29 09:00:08
Writing application              : mkvmerge v7.8.0 ('River Man') 32bit built on Mar 27 2015 16:18:02
Writing library                  : libebml v1.3.1 + libmatroska v1.4.2

Video
ID                               : 1
Format                           : AVC
Format/Info                      : Advanced Video Codec
Format profile                   : High@L3.1
Format settings, CABAC           : Yes
Format settings, ReFrames        : 3 frames
Codec ID                         : V_MPEG4/ISO/AVC
Duration                         : 2h 12mn
Bit rate mode                    : Variable
Bit rate                         : 2 496 Kbps
Maximum bit rate                 : 14.0 Mbps
Width                            : 1 066 pixels
Height                           : 576 pixels
Display aspect ratio             : 1.851
Frame rate                       : 25.000 fps
Color space                      : YUV
Chroma subsampling               : 4:2:0
Bit depth                        : 8 bits
Scan type                        : Progressive
Bits/(Pixel*Frame)               : 0.163
Stream size                      : 2.26 GiB (79%)
Writing library                  : x264 core 146 r2538 121396c
Encoding settings                : cabac=1 / ref=3 / deblock=1:-1:-1 / analyse=0x3:0x113 / me=hex / subme=7 / psy=1 / psy_rd=1.00:0.15 / mixed_ref=1 / me_range=16 / chroma_me=1 / trellis=1 / 8x8dct=1 / cqm=0 / deadzone=21,11 / fast_pskip=1 / chroma_qp_offset=-3 / threads=3 / lookahead_threads=1 / sliced_threads=0 / slices=4 / nr=0 / decimate=1 / interlaced=0 / bluray_compat=1 / constrained_intra=0 / bframes=3 / b_pyramid=1 / b_adapt=1 / b_bias=0 / direct=1 / weightb=1 / open_gop=1 / weightp=1 / keyint=250 / keyint_min=1 / scenecut=40 / intra_refresh=0 / rc_lookahead=40 / rc=2pass / mbtree=1 / bitrate=2496 / ratetol=1.0 / qcomp=0.60 / qpmin=0 / qpmax=69 / qpstep=4 / cplxblur=20.0 / qblur=0.5 / vbv_maxrate=14000 / vbv_bufsize=14000 / nal_hrd=vbr / filler=0 / ip_ratio=1.40 / aq=1:1.00
Language                         : English

Audio #1
ID                               : 2
Format                           : AC-3
Format/Info                      : Audio Coding 3
Mode extension                   : CM (complete main)
Codec ID                         : A_AC3
Duration                         : 2h 12mn
Bit rate mode                    : Constant
Bit rate                         : 192 Kbps
Channel(s)                       : 2 channels
Channel positions                : Front: L R
Sampling rate                    : 48.0 KHz
Bit depth                        : 16 bits
Compression mode                 : Lossy
Stream size                      : 182 MiB (6%)
Language                         : German

Audio #2
ID                               : 3
Format                           : AC-3
Format/Info                      : Audio Coding 3
Mode extension                   : CM (complete main)
Codec ID                         : A_AC3
Duration                         : 2h 12mn
Bit rate mode                    : Constant
Bit rate                         : 192 Kbps
Channel(s)                       : 2 channels
Channel positions                : Front: L R
Sampling rate                    : 48.0 KHz
Bit depth                        : 16 bits
Compression mode                 : Lossy
Stream size                      : 182 MiB (6%)
Language                         : English

Audio #3
ID                               : 4
Format                           : AC-3
Format/Info                      : Audio Coding 3
Mode extension                   : CM (complete main)
Codec ID                         : A_AC3
Duration                         : 2h 12mn
Bit rate mode                    : Constant
Bit rate                         : 192 Kbps
Channel(s)                       : 2 channels
Channel positions                : Front: L R
Sampling rate                    : 48.0 KHz
Bit depth                        : 16 bits
Compression mode                 : Lossy
Stream size                      : 182 MiB (6%)
Language                         : Spanish

Text
ID                               : 5
Format                           : UTF-8
Codec ID                         : S_TEXT/UTF8
Codec ID/Info                    : UTF-8 Plain Text
Language                         : English
Imagen

Imagen
Imagen
Imagen
Imagen

eD2K link Sleuth-Mord mit kleinen Fehlern (1972) M. Caine DVDRip 576p x264 ger-eng-spa.mkv [2.85 Gb] 
Tengo un comunicado de almacenamiento jajaja enjoy

Avatar de Usuario
toerless
 
Mensajes: 869
Registrado: 16 Oct 2012, 16:27
Agradecido : 115 veces
Agradecimiento recibido: 514 veces

Re: Sleuth (Joseph L. Mankiewicz, 1972) DVDRip 576p VOE

Mensaje por toerless » 30 Abr 2015, 16:38

Nur mit Esel oder Maultier zu erhalten? In jedem Fall, Danke!

Responder

Volver a “Largos Modernos”