The Incredible Journey (Fletcher Markle, 1963) WEB-DL 720p Multiaud Subs

Puntuación
5/10
1 voto

El viaje increíble (Doblaje Cines 1968/N. Mex 60'/Ita 64/Fre 64/Ger 66)

Moderador: Monsieur Lange

Responder
Avatar de Usuario
DCINE
 
Mensajes: 1846
Registrado: 30 Jul 2016 20:09
Agradecido : 797 veces
Agradecimiento recibido: 4294 veces

Estados Unidos The Incredible Journey (Fletcher Markle, 1963) WEB-DL 720p Multiaud Subs

Mensaje por DCINE » 21 May 2022 07:24

El viaje increíble
(The Incredible Journey)

1963

Imagen

AKA: Un viaje increíble/L'incredibile avventura/L'incroyable randonnée/Die unglaubliche Reise

DIRECTOR: Fletcher Markle
PRODUCTORA: Coproducción Estados Unidos-Canadá; Cangary, Walt Disney Productions
GUIÓN: James Algar. Libro: Sheila Burnford
MÚSICA: Oliver Wallace
FOTOGRAFÍA: Kenneth Peach Jr.



ImagenImagenImagen


ARGUMENTO La historia de tres mascotas, un gato y dos perros, que pierden a sus dueños cuando todos están de vacaciones. ¿Podrán encontrar su camino a casa? (FILMAFFINITY) IMDB: https://www.imdb.com/title/tt0057180/





Reparto: Émile Genest, John Drainie, Tommy Tweed, Sandra Scott, Syme Jago, Marion Finlayson, Ronald Cohoon, Robert Christie, Beth Lockerbie, Jan Rubes




Datos técnicos

Video: 1080p bajado de rutracker, codificado a 720p.

Audios:

V.O. (Inglés): En AC-3.

Doblajes:

Español: Dos audios
Para España:

El de su estreno en cines de 1968. De una grabación propia de un pase por TRECE. Faltaba un tramo y alguna frase entrecortada que he añadido gracia a un fragmento grabado de TVE en los 90' subida a archive.org por madopiuter.



Para Sudamérica:

Realizado en México en los 60': De un ripeo firmado por Charizard bajado de retroshd-movies-bycharizard.blogspot.com. La calidad del sonido no es muy buena.


Italiano: El de su estreno en cines de 1964: De un ripeo bajado de emule .

Francés: El de su estreno en cines de 1964: Del mismo ripeo de donde extraje el doblaje italiano.

Alemán: El de su estreno en cines de 1966: De un ripeo bajado de bloodsuckerz.cx





Subtítulos:
Ingleses ya incluidos. Españoles de subdivx. Italianos y franceses del ripeo de donde extraje los doblaje italiano y francés

Código: Seleccionar todo

General:
Complete name                    : 1963 El viaje increible (The Incredible Journey) (Fletcher Markle) WEB-DL 720p (Spa (Doblaje Cines 1968 - N. Mex 60')-Eng-Ita-Fre-Ger) SE-I-Ita-Fre.mkv
Format                           : Matroska
Format version                   : Version 4 / Version 2
File size                        : 5.03 GiB
Duration                         : 1h 20mn
Overall bit rate                 : 8 973 Kbps
Movie name                       : 1963 El viaje increible (Un viaje increible)/The Incredible Journey/L'incredibile avventura/L'incroyable randonnée/Die unglaubliche Reise (Fletcher Markle, 1963) WEB-DL 720p Multiaud (Spa (Doblaje Cines 1968/Doblaje Neutro Mexicano de los 60')-Eng-Ita (Doppiaggio originale 1964)-Fre (Doublage original 1964)-Ger (Synchronisation von 1966)) SE-I-Ita-Fre.mkv
Encoded date                     : UTC 2022-02-01 15:32:04
Writing application              : mkvmerge v7.1.0 ('Good Love') 32bit built on Jul 27 2014 12:59:18
Writing library                  : libebml v1.3.0 + libmatroska v1.4.1
DURATION                         : 01:20:17.472000000
NUMBER_OF_FRAMES                 : 150546
NUMBER_OF_BYTES                  : 115619328
_STATISTICS_WRITING_APP          : mkvmerge v7.1.0 ('Good Love') 32bit built on Jul 27 2014 12:59:18
_STATISTICS_WRITING_DATE_UTC     : 2022-02-01 15:32:04
_STATISTICS_TAGS                 : BPS DURATION NUMBER_OF_FRAMES NUMBER_OF_BYTES

Video
ID                               : 1
Format                           : AVC
Format/Info                      : Advanced Video Codec
Format profile                   : Main@L4.1
Format settings, CABAC           : Yes
Format settings, ReFrames        : 9 frames
Codec ID                         : V_MPEG4/ISO/AVC
Duration                         : 1h 20mn
Bit rate                         : 7 642 Kbps
Width                            : 1 276 pixels
Height                           : 720 pixels
Display aspect ratio             : 16:9
Frame rate mode                  : Variable
Frame rate                       : 23.976 fps
Color space                      : YUV
Chroma subsampling               : 4:2:0
Bit depth                        : 8 bits
Scan type                        : Progressive
Bits/(Pixel*Frame)               : 0.347
Stream size                      : 4.29 GiB (85%)
Writing library                  : x264 core 157 r2935 545de2f
Encoding settings                : cabac=1 / ref=9 / deblock=1:0:0 / analyse=0x1:0x131 / me=umh / subme=10 / psy=1 / psy_rd=1.00:0.00 / mixed_ref=1 / me_range=24 / chroma_me=1 / trellis=2 / 8x8dct=0 / cqm=0 / deadzone=21,11 / fast_pskip=1 / chroma_qp_offset=-2 / threads=12 / lookahead_threads=2 / sliced_threads=0 / nr=0 / decimate=1 / interlaced=0 / bluray_compat=0 / constrained_intra=0 / bframes=8 / b_pyramid=2 / b_adapt=2 / b_bias=0 / direct=3 / weightb=1 / open_gop=0 / weightp=2 / keyint=240 / keyint_min=24 / scenecut=40 / intra_refresh=0 / rc_lookahead=60 / rc=crf / mbtree=1 / crf=18.0 / qcomp=0.60 / qpmin=0 / qpmax=69 / qpstep=4 / vbv_maxrate=50000 / vbv_bufsize=62500 / crf_max=0.0 / nal_hrd=none / filler=0 / ip_ratio=1.40 / aq=1:1.00
Default                          : Yes
Forced                           : No
DURATION                         : 01:20:17.438000000
NUMBER_OF_FRAMES                 : 115503
NUMBER_OF_BYTES                  : 4707269589
_STATISTICS_WRITING_APP          : mkvmerge v7.1.0 ('Good Love') 32bit built on Jul 27 2014 12:59:18
_STATISTICS_WRITING_DATE_UTC     : 2022-02-01 15:32:04
_STATISTICS_TAGS                 : BPS DURATION NUMBER_OF_FRAMES NUMBER_OF_BYTES
Color primaries                  : BT.709-5, BT.1361, IEC 61966-2-4, SMPTE RP177
Transfer characteristics         : BT.709-5, BT.1361
Matrix coefficients              : BT.709-5, BT.1361, IEC 61966-2-4 709, SMPTE RP177

Audio #1
ID                               : 2
Format                           : AC-3
Format/Info                      : Audio Coding 3
Mode extension                   : CM (complete main)
Codec ID                         : A_AC3
Duration                         : 1h 20mn
Bit rate mode                    : Constant
Bit rate                         : 192 Kbps
Channel(s)                       : 1 channel
Channel positions                : Front: C
Sampling rate                    : 48.0 KHz
Bit depth                        : 16 bits
Compression mode                 : Lossy
Stream size                      : 110 MiB (2%)
Title                            : Doblaje Cines 1968 (Sync by DCINE)
Language                         : Spanish
Default                          : Yes
Forced                           : Yes

Audio #2
ID                               : 3
Format                           : AC-3
Format/Info                      : Audio Coding 3
Mode extension                   : CM (complete main)
Codec ID                         : A_AC3
Duration                         : 1h 20mn
Bit rate mode                    : Constant
Bit rate                         : 192 Kbps
Channel(s)                       : 1 channel
Channel positions                : Front: C
Sampling rate                    : 48.0 KHz
Bit depth                        : 16 bits
Compression mode                 : Lossy
Stream size                      : 110 MiB (2%)
Title                            : Doblaje Neutro Mexicano de los 60' (by Charizard) (retroshd-movies-bycharizard.blogspot.com)
Language                         : Spanish
Default                          : No
Forced                           : No

Audio #3
ID                               : 4
Format                           : AC-3
Format/Info                      : Audio Coding 3
Mode extension                   : CM (complete main)
Codec ID                         : A_AC3
Duration                         : 1h 20mn
Bit rate mode                    : Constant
Bit rate                         : 192 Kbps
Channel(s)                       : 1 channel
Channel positions                : Front: C
Sampling rate                    : 48.0 KHz
Bit depth                        : 16 bits
Compression mode                 : Lossy
Stream size                      : 110 MiB (2%)
Language                         : English
Default                          : No
Forced                           : No

Audio #4
ID                               : 5
Format                           : AC-3
Format/Info                      : Audio Coding 3
Mode extension                   : CM (complete main)
Codec ID                         : A_AC3
Duration                         : 1h 20mn
Bit rate mode                    : Constant
Bit rate                         : 192 Kbps
Channel(s)                       : 1 channel
Channel positions                : Front: C
Sampling rate                    : 48.0 KHz
Bit depth                        : 16 bits
Compression mode                 : Lossy
Stream size                      : 110 MiB (2%)
Title                            : Doppiaggio originale 1964
Language                         : Italian
Default                          : No
Forced                           : No

Audio #5
ID                               : 6
Format                           : AC-3
Format/Info                      : Audio Coding 3
Mode extension                   : CM (complete main)
Codec ID                         : A_AC3
Duration                         : 1h 20mn
Bit rate mode                    : Constant
Bit rate                         : 192 Kbps
Channel(s)                       : 1 channel
Channel positions                : Front: C
Sampling rate                    : 48.0 KHz
Bit depth                        : 16 bits
Compression mode                 : Lossy
Stream size                      : 110 MiB (2%)
Title                            : Doublage original 1964
Language                         : French
Default                          : No
Forced                           : No

Audio #6
ID                               : 7
Format                           : AC-3
Format/Info                      : Audio Coding 3
Mode extension                   : CM (complete main)
Codec ID                         : A_AC3
Duration                         : 1h 20mn
Bit rate mode                    : Constant
Bit rate                         : 192 Kbps
Channel(s)                       : 1 channel
Channel positions                : Front: C
Sampling rate                    : 48.0 KHz
Bit depth                        : 16 bits
Compression mode                 : Lossy
Stream size                      : 110 MiB (2%)
Title                            : Synchronisation von 1966
Language                         : German
Default                          : No
Forced                           : No

Text #1
ID                               : 8
Format                           : UTF-8
Codec ID                         : S_TEXT/UTF8
Codec ID/Info                    : UTF-8 Plain Text
Language                         : Spanish
Default                          : No
Forced                           : No

Text #2
ID                               : 9
Format                           : UTF-8
Codec ID                         : S_TEXT/UTF8
Codec ID/Info                    : UTF-8 Plain Text
Language                         : English
Default                          : No
Forced                           : No

Text #3
ID                               : 10
Format                           : UTF-8
Codec ID                         : S_TEXT/UTF8
Codec ID/Info                    : UTF-8 Plain Text
Title                            : SDH
Language                         : English
Default                          : No
Forced                           : No

Text #4
ID                               : 11
Format                           : UTF-8
Codec ID                         : S_TEXT/UTF8
Codec ID/Info                    : UTF-8 Plain Text
Language                         : Italian
Default                          : No
Forced                           : No

Text #5
ID                               : 12
Format                           : UTF-8
Codec ID                         : S_TEXT/UTF8
Codec ID/Info                    : UTF-8 Plain Text
Language                         : French
Default                          : No
Forced                           : No

Menu #1
00:00:00.000                     : :Scene 1
00:00:07.049                     : :Scene 2
00:02:40.118                     : :Scene 3
00:05:55.063                     : :Scene 4
00:08:28.133                     : :Scene 5
00:10:29.087                     : :Scene 6
00:11:25.059                     : :Scene 7
00:13:49.120                     : :Scene 8
00:16:49.008                     : :Scene 9
00:19:15.112                     : :Scene 10
00:22:37.064                     : :Scene 11
00:24:34.014                     : :Scene 12
00:29:30.102                     : :Scene 13
00:30:35.125                     : :Scene 14
00:32:57.058                     : :Scene 15
00:35:54.110                     : :Scene 16
00:41:42.083                     : :Scene 17
00:42:30.048                     : :Scene 18
00:47:14.123                     : :Scene 19
00:47:59.001                     : :Scene 20
00:50:08.130                     : :Scene 21
00:51:50.149                     : :Scene 22
00:53:03.013                     : :Scene 23
00:55:39.044                     : :Scene 24
00:57:07.341                     : :Scene 25
00:58:40.100                     : :Scene 26
01:04:07.135                     : :Scene 27
01:07:04.187                     : :Scene 28
01:07:44.102                     : :Scene 29
01:09:26.162                     : :Scene 30
01:11:05.052                     : :Scene 31
01:12:01.025                     : :Scene 32
01:13:30.072                     : :Scene 33
01:15:24.061                     : :Scene 34
01:20:09.138                     : :Scene 35

Menu #2
00:00:00.000                     : en:Scene 1
00:00:07.000                     : en:Scene 2
00:02:40.000                     : en:Scene 3
00:05:55.000                     : en:Scene 4
00:08:28.000                     : en:Scene 5
00:10:29.000                     : en:Scene 6
00:11:25.000                     : en:Scene 7
00:13:49.000                     : en:Scene 8
00:16:49.000                     : en:Scene 9
00:19:15.000                     : en:Scene 10
00:22:37.000                     : en:Scene 11
00:24:34.000                     : en:Scene 12
00:29:30.000                     : en:Scene 13
00:30:35.000                     : en:Scene 14
00:32:57.000                     : en:Scene 15
00:35:54.000                     : en:Scene 16
00:41:42.000                     : en:Scene 17
00:42:30.000                     : en:Scene 18
00:47:14.000                     : en:Scene 19
00:47:59.000                     : en:Scene 20
00:50:08.000                     : en:Scene 21
00:51:50.000                     : en:Scene 22
00:53:03.000                     : en:Scene 23
00:55:39.000                     : en:Scene 24
00:57:07.000                     : en:Scene 25
00:58:40.000                     : en:Scene 26
01:04:07.000                     : en:Scene 27
01:07:04.000                     : en:Scene 28
01:07:44.000                     : en:Scene 29
01:09:26.000                     : en:Scene 30
01:11:05.000                     : en:Scene 31
01:12:01.000                     : en:Scene 32
01:13:30.000                     : en:Scene 33
01:15:24.000                     : en:Scene 34
01:20:09.000                     : en:Scene 35


Capturas:

Imagen Imagen
Imagen Imagen
Imagen Imagen
Imagen Imagen
Imagen Imagen


Enlace:

eD2K link 1963 El viaje increible (The Incredible Journey) (Fletcher Markle) WEB-DL 720p (S...SE-I-Ita-Fre.mkv [5.03 Gb] 

Avatar de Usuario
yojimbo
 
Mensajes: 12265
Registrado: 18 Oct 2012 14:25
Agradecido : 11896 veces
Agradecimiento recibido: 3453 veces

Re: The Incredible Journey (Fletcher Markle, 1963) WEB-DL 720p Multiaud Subs

Mensaje por yojimbo » 21 May 2022 13:51

Muchas gracias, DCINE.

rdeespana
 
Mensajes: 1470
Registrado: 06 Dic 2012 03:30
Agradecido : 4584 veces
Agradecimiento recibido: 1219 veces

Re: The Incredible Journey (Fletcher Markle, 1963) WEB-DL 720p Multiaud Subs

Mensaje por rdeespana » 22 May 2022 14:59

No sé de quién sería la idea de una peli con animales live action, pero no parece que la cosa funcionara: que un Disney tardara cinco años en estrenarse en España...


Imagen
No discuto que los perros de esta raza sean buenísimos, pero esta cara de atravesao no mejora ni poniéndole la voz de Juan Manuel Soriano...

Avatar de Usuario
tonapar1
 
Mensajes: 6411
Registrado: 16 Oct 2012 20:19
Agradecido : 1338 veces
Agradecimiento recibido: 2299 veces

Re: The Incredible Journey (Fletcher Markle, 1963) WEB-DL 720p Multiaud Subs

Mensaje por tonapar1 » 25 May 2022 17:30

Muchas gracias por el ripeo a dcine. Un saludo.
Anda que de todos los perros a escoger, me pilla disney un simpatico perro de presa medio chiflado xd

Responder

Volver a “Largos Modernos”