The Insomniac (Rodney Giesler, 1971) BDRip VOSE

Puntuación
5/10
1 voto

Moderador: Monsieur Lange

Responder
Avatar de Usuario
boss0506
 
Mensajes: 723
Registrado: 16 Oct 2012, 17:32
Agradecido : 621 veces
Agradecimiento recibido: 591 veces

Reino Unido The Insomniac (Rodney Giesler, 1971) BDRip VOSE

Mensaje por boss0506 » 10 Oct 2019, 09:42


Professor Keller Presenta



Imagen


The Insomniac

IMDB


Dirección
Rodney Giesler

Guión
Rodney Giesler

Fotografía
Anthony B. Richmond

Género
Misterio - Thriller

País
Gran Bretaña

Año de producción
1971

Reparto:
Morris Perry, Valerie Van Ost, Patricia Leventon,
Simon Merrick, Neville Marten, Sara Nicholls.



SINOPSIS: La extraña experiencia de un hombre insomne que, incapaz de dormir, mira por la ventana de su apartamento, y no ve el gris panorama urbano que esperaría sino un radiante jardín rural, el mundo imaginario que habitan sus hijos. Decide explorar esa fantasía y en una fiesta conoce a una joven con la que escapa a un lugar soleado y deshabitado en el campo. (FILMAFFINITY)


CAPTURAS

Imagen

Imagen

Imagen

Imagen


Spoiler:
Complete name : The Insomniac (Rodney Giesler, 1971) BDRip VO.mkv
Format : Matroska
Format version : Version 2
File size : 3.28 GiB
Duration : 44 min 35 s
Overall bit rate : 10.5 Mb/s
Encoded date : UTC 2013-09-25 11:59:43
Writing application : mkvmerge v6.2.0 ('Promised Land') built on Apr 28 2013 12:22:01
Writing library : libebml v1.3.0 + libmatroska v1.4.0

Video
ID : 1
Format : AVC
Format/Info : Advanced Video Codec
Format profile : High@L4.1
Format settings : CABAC / 4 Ref Frames
Format settings, CABAC : Yes
Format settings, ReFrames : 4 frames
Codec ID : V_MPEG4/ISO/AVC
Duration : 44 min 35 s
Bit rate : 9 884 kb/s
Width : 1 472 pixels
Height : 1 080 pixels
Display aspect ratio : 4:3
Frame rate mode : Constant
Frame rate : 24.000 FPS
Color space : YUV
Chroma subsampling : 4:2:0
Bit depth : 8 bits
Scan type : Progressive
Bits/(Pixel*Frame) : 0.259
Stream size : 3.01 GiB (92%)
Writing library : x264 core 135 r2345 f0c1c53
Encoding settings : cabac=1 / ref=4 / deblock=1:0:0 / analyse=0x3:0x133 / me=umh / subme=7 / psy=1 / psy_rd=1.00:0.00 / mixed_ref=1 / me_range=16 / chroma_me=1 / trellis=1 / 8x8dct=1 / cqm=0 / deadzone=21,11 / fast_pskip=0 / chroma_qp_offset=-2 / threads=12 / lookahead_threads=2 / sliced_threads=0 / nr=0 / decimate=1 / interlaced=0 / bluray_compat=0 / constrained_intra=0 / bframes=3 / b_pyramid=2 / b_adapt=2 / b_bias=0 / direct=3 / weightb=1 / open_gop=0 / weightp=2 / keyint=250 / keyint_min=24 / scenecut=40 / intra_refresh=0 / rc_lookahead=50 / rc=2pass / mbtree=1 / bitrate=9884 / ratetol=1.0 / qcomp=0.60 / qpmin=0 / qpmax=69 / qpstep=4 / cplxblur=20.0 / qblur=0.5 / ip_ratio=1.40 / aq=1:1.00
Language : English
Default : Yes
Forced : No

Audio
ID : 2
Format : AC-3
Format/Info : Audio Coding 3
Commercial name : Dolby Digital
Codec ID : A_AC3
Duration : 44 min 35 s
Bit rate mode : Constant
Bit rate : 640 kb/s
Channel(s) : 1 channel
Channel layout : C
Sampling rate : 48.0 kHz
Frame rate : 31.250 FPS (1536 SPF)
Bit depth : 16 bits
Compression mode : Lossy
Stream size : 204 MiB (6%)
Language : English
Service kind : Complete Main
Default : Yes
Forced : No

Menu
00:00:00.000 : en:00:00:00.000
00:01:54.917 : en:00:01:54.917
00:09:39.375 : en:00:09:39.375
00:24:47.625 : en:00:24:47.625
00:34:45.333 : en:00:34:45.333



eD2K link The Insomniac (Rodney Giesler, 1971) BDRip VO.mkv [3.28 Gb] 


SUBTÍTULOS EN ESPAÑOL TRADUCIDOS POR PROFESSOR KELLER:
https://www.subdivx.com/X6XNTc2MDk0X-th ... -1971.html


:hi:
Última edición por boss0506 el 10 Oct 2019, 23:14, editado 1 vez en total.

Avatar de Usuario
yojimbo
 
Mensajes: 9295
Registrado: 18 Oct 2012, 14:25
Agradecido : 9313 veces
Agradecimiento recibido: 2358 veces

Re: The Insomniac (Rodney Giesler, 1971) BDRip VOSE

Mensaje por yojimbo » 10 Oct 2019, 11:26

Muchas gracias, boss0506 y professor keller.

rdeespana
 
Mensajes: 540
Registrado: 06 Dic 2012, 03:30
Agradecido : 2459 veces
Agradecimiento recibido: 308 veces

Re: The Insomniac (Rodney Giesler, 1971) BDRip VOSE

Mensaje por rdeespana » 10 Oct 2019, 15:28

Very interesting rarity, gracias por traerla...

Avatar de Usuario
professor keller
 
Mensajes: 4635
Registrado: 03 Oct 2012, 10:07
Agradecido : 254 veces
Agradecimiento recibido: 1545 veces

Re: The Insomniac (Rodney Giesler, 1971) BDRip VOSE

Mensaje por professor keller » 10 Oct 2019, 21:02

Professor Keller Presenta

jajaja

Gracias por la publicación, Boss. Yo solo traduje los subs, que de yapa son brevísimos ;)

Es un mediometraje en realidad, 44 minutos. La verdad es que por su factura, yo lo pondría en largos. No sé qué opinarán los mods.

Saludos y nuevamente gracias.

Edito: las capturas están raras. Dejo algunas con el AR correcto.

Imagen
Imagen
Imagen
Imagen
La pluma en el ojo
Proyecto colectivo de ideas cinéfilas

albie1001
 
Mensajes: 79
Registrado: 03 Ene 2013, 10:21
Agradecido : 25 veces
Agradecimiento recibido: 33 veces

Re: The Insomniac (Rodney Giesler, 1971) BDRip VOSE

Mensaje por albie1001 » 10 Oct 2019, 21:45

Not really a movie, it was released as a 40 minute extra feature on the BFI's Blu-ray/DVD Combo of Sleepwalker (1984).

Avatar de Usuario
boss0506
 
Mensajes: 723
Registrado: 16 Oct 2012, 17:32
Agradecido : 621 veces
Agradecimiento recibido: 591 veces

Re: The Insomniac (Rodney Giesler, 1971) BDRip VOSE

Mensaje por boss0506 » 10 Oct 2019, 23:15

Sustituidas las capturas. Gracias, Keller.

Responder

Volver a “Cortos Modernos”