Apache (Robert Aldrich, 1954) VER ÍNDICE

Puntuación
6,3/10
3 votos

Apache

Moderador: mifune

Responder
Avatar de Usuario
DMMD
 
Mensajes: 665
Registrado: 16 Oct 2012 15:35
Agradecido : 711 veces
Agradecimiento recibido: 3513 veces

Estados Unidos Apache (Robert Aldrich, 1954) VER ÍNDICE

Mensaje por DMMD » 09 May 2015 22:42

Índice de Ripeos: -
HDTVRip 720p Dual SE publicado por DMMD
WEBDL 720p Dual SE publicado por DMMD

*Nota: Tenga en cuenta la calidad de cada ripeo para hacer la mejor elección. Haga click aquí para más información.
Apache


Robert Aldrich, 1954






Imagen



IMDb


Apache


Título original Apache
Año 1954
Duración 91 min.
País Imagen
Director Robert Aldrich
Guión James R. Webb
Música David Raksin
Fotografía Ernest Laszlo
Reparto
Burt Lancaster, Jean Peters, Charles Bronson, John Dehner, John McIntire, Paul Guilfoyle, Ian MacDonald, Monte Blue, Morris Ankrum, Walter Sande
Productora Metro-Goldwyn-Mayer
Género Western
Sinopsis
Después de años de sangrienta lucha contra los colonos y el ejército, el jefe apache Gerónimo se ve obligado a abandonar su tierra. Pero Massai (Lancaster), el guerrero más orgulloso de la tribu, se niega a aceptar la derrota y se enfrenta con astucia a la caballería. Y a medida que su cruzada se acerca al final, se dará cuenta de que debe perseverar, no sólo para salvar su vida, sino también para preservar el orgullo de su raza. (FILMAFFINITY)
Críticas
"Excelente caracterización de Lancaster dando vida al apache protagonista de este curioso western. Un lujo"
Fernando Morales: Diario El País






Código: Seleccionar todo

General
Unique ID                                : 186476759385258537584125241084730775843 (0x8C4A1E1361A1B5A58E8ADCD122699923)
Complete name                            : C:\Program Files (x86)\eMule\Incoming\1954-Apache.HDTV.x264.720p.Ac3-DMMD.mkv
Format                                   : Matroska
Format version                           : Version 4 / Version 2
File size                                : 2.84 GiB
Duration                                 : 1h 27mn
Overall bit rate                         : 4 657 Kbps
Movie name                               : 1954-Apache.HDTV.x264.720p.Ac3-DMMD
Encoded date                             : UTC 2015-05-08 13:41:19
Writing application                      : mkvmerge v7.8.0 ('River Man') 64bit built on Mar 27 2015 16:31:37
Writing library                          : libebml v1.3.1 + libmatroska v1.4.2
Attachements                             : 1954-Apache-Robert-Aldrich-2.jpg / Apache.jpg / Apache_(film)_poster.jpg
_STATISTICS_WRITING_APP                  : mkvmerge v7.8.0 ('River Man') 64bit built on Mar 27 2015 16:31:37
_STATISTICS_WRITING_DATE_UTC             : 2015-05-08 13:41:19
_STATISTICS_TAGS                         : BPS DURATION NUMBER_OF_FRAMES NUMBER_OF_BYTES
DURATION                                 : 01:24:51.828000000
NUMBER_OF_FRAMES                         : 630
NUMBER_OF_BYTES                          : 24732

Video
ID                                       : 1
Format                                   : AVC
Format/Info                              : Advanced Video Codec
Format profile                           : High@L4.1
Format settings, CABAC                   : Yes
Format settings, ReFrames                : 9 frames
Codec ID                                 : V_MPEG4/ISO/AVC
Duration                                 : 1h 27mn
Bit rate                                 : 4 180 Kbps
Width                                    : 1 280 pixels
Height                                   : 720 pixels
Display aspect ratio                     : 16:9
Frame rate mode                          : Constant
Frame rate                               : 23.976 fps
Color space                              : YUV
Chroma subsampling                       : 4:2:0
Bit depth                                : 8 bits
Scan type                                : Progressive
Bits/(Pixel*Frame)                       : 0.189
Stream size                              : 2.55 GiB (90%)
Writing library                          : x264 core 142 r2479kMod dd79a61
Encoding settings                        : cabac=1 / ref=9 / deblock=1:-3:-3 / analyse=0x3:0x133 / me=umh / subme=11 / psy=1 / fade_compensate=0.00 / psy_rd=1.00:0.00 / mixed_ref=1 / me_range=24 / chroma_me=1 / trellis=2 / 8x8dct=1 / cqm=0 / deadzone=21,11 / fast_pskip=0 / chroma_qp_offset=-2 / threads=6 / lookahead_threads=1 / sliced_threads=0 / nr=0 / decimate=0 / interlaced=0 / bluray_compat=0 / constrained_intra=0 / fgo=0 / bframes=8 / b_pyramid=2 / b_adapt=2 / b_bias=0 / direct=3 / weightb=1 / open_gop=0 / weightp=2 / keyint=250 / keyint_min=23 / scenecut=40 / intra_refresh=0 / rc=crf / mbtree=0 / crf=18.1000 / qcomp=0.60 / qpmin=0 / qpmax=69 / qpstep=4 / ip_ratio=1.30 / pb_ratio=1.20 / aq=1:1.00
Language                                 : English
Default                                  : Yes
Forced                                   : No
_STATISTICS_WRITING_APP                  : mkvmerge v7.8.0 ('River Man') 64bit built on Mar 27 2015 16:31:37
_STATISTICS_WRITING_DATE_UTC             : 2015-05-08 13:41:19
_STATISTICS_TAGS                         : BPS DURATION NUMBER_OF_FRAMES NUMBER_OF_BYTES
DURATION                                 : 01:27:20.861000000
NUMBER_OF_FRAMES                         : 125655
NUMBER_OF_BYTES                          : 2796827356

Audio #1
ID                                       : 2
Format                                   : AC-3
Format/Info                              : Audio Coding 3
Mode extension                           : CM (complete main)
Format settings, Endianness              : Big
Codec ID                                 : A_AC3
Duration                                 : 1h 27mn
Bit rate mode                            : Constant
Bit rate                                 : 192 Kbps
Channel(s)                               : 2 channels
Channel positions                        : Front: L R
Sampling rate                            : 48.0 KHz
Bit depth                                : 16 bits
Compression mode                         : Lossy
Stream size                              : 120 MiB (4%)
Language                                 : English
Default                                  : No
Forced                                   : No

Audio #2
ID                                       : 3
Format                                   : AC-3
Format/Info                              : Audio Coding 3
Mode extension                           : CM (complete main)
Format settings, Endianness              : Big
Codec ID                                 : A_AC3
Duration                                 : 1h 27mn
Bit rate mode                            : Constant
Bit rate                                 : 192 Kbps
Channel(s)                               : 2 channels
Channel positions                        : Front: L R
Sampling rate                            : 48.0 KHz
Bit depth                                : 16 bits
Compression mode                         : Lossy
Delay relative to video                  : 800ms
Stream size                              : 120 MiB (4%)
Language                                 : Spanish
Default                                  : No
Forced                                   : No

Text #1
ID                                       : 4
Format                                   : UTF-8
Codec ID                                 : S_TEXT/UTF8
Codec ID/Info                            : UTF-8 Plain Text
Language                                 : Spanish
Default                                  : No
Forced                                   : No

Text #2
ID                                       : 5
Format                                   : UTF-8
Codec ID                                 : S_TEXT/UTF8
Codec ID/Info                            : UTF-8 Plain Text
Language                                 : English
Default                                  : No
Forced                                   : No

Menu
00:00:00.000                             : en:Chapter 1
00:04:44.760                             : en:Chapter 2
00:07:12.920                             : en:Chapter 3
00:10:17.040                             : en:Chapter 4
00:15:30.520                             : en:Chapter 5
00:21:30.960                             : en:Chapter 6
00:28:18.040                             : en:Chapter 7
00:33:35.480                             : en:Chapter 8
00:40:26.880                             : en:Chapter 9
00:48:38.200                             : en:Chapter 10
00:56:15.080                             : en:Chapter 11
01:01:22.680                             : en:Chapter 12
01:04:02.960                             : en:Chapter 13
01:07:38.880                             : en:Chapter 14
01:12:41.080                             : en:Chapter 15
01:17:34.640                             : en:Chapter 16


Imagen


Gracias a Dardo por: Burt Lancaster : Western en HDTV y...Bluray , dejo una comparativa del Hdtv 720p (16/9)



Imagen
Imagen
Imagen




CAPTURAS

Imagen
Imagen
Imagen
Imagen
Imagen
Imagen







Enlaces de descarga

Imagen

eD2K link 1954-Apache.HDTV.x264.720p.Ac3-DMMD.mkv [2.84 Gb] 



Imagen

jail
 
Mensajes: 6275
Registrado: 18 Oct 2012 15:34
Agradecido : 6875 veces
Agradecimiento recibido: 1953 veces

Re: Apache (Robert Aldrich, 1954) HDTVRip 720p Dual SE

Mensaje por jail » 10 May 2015 00:46

Gracias de nuevo, DMMD.

Avatar de Usuario
Monsieur Lange
 
Mensajes: 6279
Registrado: 13 Sep 2012 19:39
Ubicación: Cruzando las dunas
Agradecido : 3045 veces
Agradecimiento recibido: 2880 veces

Re: Apache (Robert Aldrich, 1954) HDTVRip 720p Dual SE

Mensaje por Monsieur Lange » 10 May 2015 00:50

Muchas gracias de nuevo, DMMD, Bajo este apache y renuevo, que tiene muy buena pinta. Saludos :aplauso:
"Esos chicos …/… hablando de los años veinte a veinticinco, revolviendo unos con otros como si todos fuesen unos .../… como si hubieran sido todos de la misma tertulia"
Max Aub: La gallina ciega

xeneise007
 
Mensajes: 1028
Registrado: 08 Ene 2013 12:19
Ubicación: Reino de Aragón
Agradecido : 1225 veces
Agradecimiento recibido: 353 veces

Re: Apache (Robert Aldrich, 1954) HDTVRip 720p Dual SE

Mensaje por xeneise007 » 10 May 2015 07:15

Gracias DMMD, renovando copia, esta mejora bastante a la que tengo. :genial:

Avatar de Usuario
yojimbo
 
Mensajes: 12361
Registrado: 18 Oct 2012 14:25
Agradecido : 12017 veces
Agradecimiento recibido: 3483 veces

Re: Apache (Robert Aldrich, 1954) HDTVRip 720p Dual SE

Mensaje por yojimbo » 12 May 2015 12:07

Muchas gracias, DMMD.

Avatar de Usuario
hdjzgz
 
Mensajes: 365
Registrado: 16 Oct 2012 19:22
Agradecido : 68 veces
Agradecimiento recibido: 791 veces

Re: Apache (Robert Aldrich, 1954) HDTVRip 720p Dual SE

Mensaje por hdjzgz » 10 Jul 2015 21:15

Doblaje original de cine 1954, sincronizado a esta copia.

eD2K link Apache.Doblaje original cine 1954 Sincronizado - HDTV.x264.720p.Ac3-.ac3 [119.87 Mb] 

Procede de una copia en VHS de su pase por Tele5 en Julio de 1992, la copia tenía pequeños microcortes, muy pocos, no se si por censura o por la copia de Tv, en esos pequeños cortes, no más de tres o cuatro, he incluido el doblaje de 1983. A Disfrutar. :)

Avatar de Usuario
yojimbo
 
Mensajes: 12361
Registrado: 18 Oct 2012 14:25
Agradecido : 12017 veces
Agradecimiento recibido: 3483 veces

Re: Apache (Robert Aldrich, 1954) HDTVRip 720p Dual SE

Mensaje por yojimbo » 10 Jul 2015 22:06

Estupenda recuperación, hdjzgz.

Muchas gracias.

pepecine
 
Mensajes: 156
Registrado: 20 Oct 2012 13:39
Agradecido : 137 veces
Agradecimiento recibido: 16 veces

Re: Apache (Robert Aldrich, 1954) HDTVRip 720p Dual SE

Mensaje por pepecine » 11 Jul 2015 02:17

Muchas gracias por este complemento, hdjzgz.

Avatar de Usuario
adelon
 
Mensajes: 650
Registrado: 16 Oct 2012 17:17
Ubicación: Zaragoza
Agradecido : 1 vez
Agradecimiento recibido: 249 veces

Re: Apache (Robert Aldrich, 1954) HDTVRip 720p Dual SE

Mensaje por adelon » 08 Sep 2015 17:43

Muchas gracias a DMMD por el vídeo y a hdjzgz por el doblaje original.

Avatar de Usuario
tuscarola
 
Mensajes: 2732
Registrado: 25 Dic 2012 20:38
Ubicación: En el Tarragonés
Agradecido : 933 veces
Agradecimiento recibido: 1199 veces

Re: Apache (Robert Aldrich, 1954) HDTVRip 720p Dual SE

Mensaje por tuscarola » 21 Oct 2015 19:36

Este doblaje original se me había pasado. Cuando vaya a casa miraré si hay fuentes..... :???: :???: Gracias hdjzgz
ImagenImagen
Imagen

Responder

Volver a “Largos Clásicos”